<?xml version="1.0" standalone="no"?>
<!DOCTYPE svg PUBLIC "-//W3C//DTD SVG 1.1//EN" "http://www.w3.org/Graphics/SVG/1.1/DTD/svg11.dtd" >
<svg xmlns="http://www.w3.org/2000/svg">
<metadata></metadata>
<defs>
<font id="bariol_lightlight" horiz-adv-x="948" >
<font-face units-per-em="2048" ascent="1612" descent="-436" />
<missing-glyph horiz-adv-x="512" />
<glyph unicode="&#x2e;&#x2e;&#x2e;" horiz-adv-x="1501" d="M96 31q0 49 47 49t47 -49q0 -47 -47 -47t-47 47zM702 31q0 49 48 49q47 0 47 -49q0 -47 -47 -47q-48 0 -48 47zM1309 31q0 49 47 49t47 -49q0 -47 -47 -47t-47 47z" />
<glyph unicode="&#xfb01;" horiz-adv-x="909" d="M51 903q0 11 8.5 19t18.5 8h117v129q0 54 12 103.5t38 93.5t63.5 76.5t92.5 51.5t121 19q123 0 211 -43q21 -10 21 -27q0 -11 -7.5 -18.5t-17.5 -7.5q-11 0 -27 8q-80 35 -184 35q-132 0 -197 -80t-65 -211v-129h479q12 0 21.5 -9.5t9.5 -21.5v-885q0 -12 -9.5 -21 t-21.5 -9t-21 9t-9 21v863h-449v-863q0 -12 -9.5 -21t-21.5 -9t-21 9t-9 21v863h-117q-11 0 -19 8t-8 18z" />
<glyph unicode="&#xfb02;" horiz-adv-x="960" d="M51 903q0 11 8.5 19t18.5 8h117v129q0 68 19 128.5t57 109.5t101.5 77.5t145.5 28.5q126 0 232 -60q16 -9 16 -24v-1114q0 -88 31 -128t98 -40q11 0 19 -8.5t8 -18.5t-8 -18t-19 -8q-93 0 -141.5 56.5t-48.5 164.5v672h-449v-863q0 -12 -9.5 -21t-21.5 -9t-21 9t-9 21 v863h-117q-11 0 -19 8t-8 18zM256 930h449v377q-88 43 -191 43q-131 0 -194.5 -80t-63.5 -211v-129z" />
<glyph unicode="&#xfb03;" horiz-adv-x="1441" d="M51 903q0 11 8.5 19t18.5 8h117v129q0 70 20 130.5t60.5 109t108 76.5t155.5 28q10 0 18 -8t8 -19q0 -10 -7.5 -18t-18.5 -8q-146 0 -214.5 -78t-68.5 -213v-129h471v129q0 68 20 128.5t58.5 109.5t103 77.5t146.5 28.5q123 0 211 -43q20 -10 20 -27q0 -11 -7 -18.5 t-17 -7.5q-11 0 -27 8q-80 35 -184 35q-132 0 -197.5 -80t-65.5 -211v-129h480q12 0 21 -9.5t9 -21.5v-885q0 -12 -9 -21t-21 -9t-21.5 9t-9.5 21v863h-449v-863q0 -12 -9 -21t-21 -9t-21.5 9t-9.5 21v863h-471v-863q0 -12 -9.5 -21t-21.5 -9t-21 9t-9 21v863h-117 q-11 0 -19 8t-8 18z" />
<glyph unicode="&#xfb04;" horiz-adv-x="1492" d="M51 903q0 11 8.5 19t18.5 8h117v129q0 70 20 130.5t60.5 109t108 76.5t155.5 28q10 0 18 -8t8 -19q0 -10 -7.5 -18t-18.5 -8q-146 0 -214.5 -78t-68.5 -213v-129h471v129q0 54 11.5 103.5t37 93.5t63 76.5t92 51.5t120.5 19q125 0 231 -60q16 -9 16 -24v-1114 q0 -88 31 -128t98 -40q11 0 19 -8.5t8 -18.5t-8 -18t-19 -8q-93 0 -141.5 56.5t-48.5 164.5v672h-449v-863q0 -12 -9 -21t-21 -9t-21.5 9t-9.5 21v863h-471v-863q0 -12 -9.5 -21t-21.5 -9t-21 9t-9 21v863h-117q-11 0 -19 8t-8 18zM788 930h449v377q-88 43 -190 43 q-131 0 -195 -80t-64 -211v-129z" />
<glyph horiz-adv-x="2048" />
<glyph horiz-adv-x="2048" />
<glyph unicode="&#xd;" horiz-adv-x="2048" />
<glyph unicode=" "  horiz-adv-x="512" />
<glyph unicode="&#x09;" horiz-adv-x="512" />
<glyph unicode="&#xa0;" horiz-adv-x="512" />
<glyph unicode="!" horiz-adv-x="288" d="M96 31q0 49 47 49t47 -49q0 -47 -47 -47t-47 47zM106 1360q0 35 37 35t37 -35l-16 -1088q0 -18 -21 -18q-20 0 -20 18z" />
<glyph unicode="&#x22;" horiz-adv-x="604" d="M170 1360q0 35 35 35t35 -35l-17 -350q0 -17 -18 -17q-21 0 -21 17zM365 1360q0 35 34 35q35 0 35 -35l-14 -350q0 -17 -21 -17q-18 0 -18 17z" />
<glyph unicode="#" horiz-adv-x="1062" d="M92 483q0 11 8 19t19 8h164l51 324h-160q-11 0 -19 8t-8 18t8.5 18.5t18.5 8.5h168l70 426q3 22 26 22q11 0 19 -8t8 -18q0 -5 -4 -29l-64 -393h340l70 426q1 10 9 16t18 6t18 -7.5t8 -18.5q0 -5 -4 -29l-63 -393h151q10 0 18.5 -8.5t8.5 -18.5t-8 -18t-19 -8h-160 l-51 -324h156q10 0 18 -8t8 -19t-7.5 -18.5t-18.5 -7.5h-164l-72 -451q-3 -22 -26 -22q-11 0 -19 8t-8 18q0 5 4 29l66 418h-340l-72 -451q-1 -10 -9 -16t-18 -6q-11 0 -18.5 8t-7.5 18q0 5 4 29l65 418h-155q-11 0 -19 8t-8 18zM338 510h340l51 324h-340z" />
<glyph unicode="$" horiz-adv-x="1095" d="M59 238q0 12 9.5 21t21.5 9q17 0 27 -16q141 -223 415 -223q412 0 412 323q0 90 -45 154.5t-117 101.5t-158.5 66t-173.5 59.5t-159 70t-117 108.5t-45 165q0 135 97 227t288 101v178q0 12 9.5 21.5t21.5 9.5t21 -9.5t9 -21.5v-178q258 -9 402 -201q6 -9 6 -18 q0 -12 -9.5 -21.5t-21.5 -9.5q-15 0 -24 12q-30 39 -60.5 68.5t-75.5 58t-106.5 43.5t-136.5 15q-181 0 -267.5 -77.5t-86.5 -197.5q0 -65 28 -115.5t75 -84t108 -60t129 -49t135.5 -46t128.5 -55.5t108 -72.5t75 -102.5t28 -140q0 -174 -112.5 -272t-322.5 -107v-176 q0 -12 -9 -21t-21 -9t-21.5 9t-9.5 21v174q-296 8 -448 248q-7 11 -7 19z" />
<glyph unicode="%" horiz-adv-x="1527" d="M102 1073q0 72 15 131t47.5 105.5t88.5 72t132 25.5t132 -25.5t88.5 -72t47.5 -105.5t15 -131t-15 -131t-47.5 -105.5t-88.5 -72t-132 -25.5t-132 25.5t-88.5 72t-47.5 105.5t-15 131zM156 1073q0 -282 229 -282t229 282q0 283 -229 283t-229 -283zM403 10q0 5 5 15 l684 1353q7 17 24 17q10 0 18.5 -8.5t8.5 -18.5q0 -6 -4 -14l-684 -1354q-6 -16 -25 -16q-11 0 -19 8t-8 18zM860 307q0 72 15 131t47.5 105.5t88.5 72t132 25.5t132 -25.5t88 -72t47 -105t15 -131.5t-15 -131.5t-47 -105t-88 -72t-132 -25.5t-132 25.5t-88.5 72 t-47.5 105.5t-15 131zM913 307q0 -282 230 -282q229 0 229 282q0 283 -229 283q-230 0 -230 -283z" />
<glyph unicode="&#x26;" horiz-adv-x="1245" d="M90 348q0 118 64.5 211t185.5 184q-115 198 -115 373q0 125 72 208t199 83q111 0 182.5 -69t71.5 -189q0 -62 -20.5 -114t-74.5 -106.5t-94.5 -87.5t-130.5 -100q-11 -8 -16 -12q81 -142 202.5 -263t294.5 -249q74 93 121 264q7 23 29 23q12 0 20.5 -8.5t8.5 -20.5 q0 -9 -5 -29q-37 -152 -124 -266q121 -84 253 -143q23 -9 23 -25q0 -12 -8.5 -20t-20.5 -8q-6 0 -18 4q-55 20 -103 45t-78 43.5t-89 58.5q-154 -164 -402 -164q-188 0 -308 99t-120 278zM152 348q0 -150 105 -235.5t261 -85.5q221 0 354 145q-189 146 -305.5 262.5 t-197.5 261.5q-103 -77 -160 -157t-57 -191zM287 1116q0 -95 26 -174.5t76 -165.5q64 48 95 72t78 67t69 74t39.5 73.5t17.5 86.5q0 99 -54.5 153t-137.5 54q-95 0 -152 -65.5t-57 -174.5z" />
<glyph unicode="'" horiz-adv-x="407" d="M170 1360q0 35 35 35t35 -35l-17 -350q0 -17 -18 -17q-21 0 -21 17z" />
<glyph unicode="(" horiz-adv-x="622" d="M162 606q0 65 1 112t4.5 115.5t10 120t18.5 116t29.5 113.5t43.5 102t59 92.5t77.5 74.5t98.5 57l10 2q12 0 20.5 -8t8.5 -20q0 -18 -17 -25q-49 -19 -89.5 -51.5t-69.5 -70.5t-52.5 -91t-38 -100t-25.5 -111.5t-16 -111.5t-8 -113.5t-3.5 -105t-0.5 -97.5t0.5 -97.5 t3.5 -105t8 -113.5t16 -111.5t25.5 -111.5t38 -100t52.5 -91t69.5 -70.5t89.5 -51.5q17 -7 17 -24q0 -12 -8.5 -20.5t-20.5 -8.5q-6 0 -10 2q-54 22 -98.5 57t-77.5 74.5t-59 92.5t-43.5 102t-29.5 113.5t-18.5 116t-10 120t-4.5 115.5t-1 112z" />
<glyph unicode=")" horiz-adv-x="622" d="M80 -270q0 18 16 24q49 19 89.5 51.5t69.5 70.5t52.5 91t38 100t25.5 111.5t16 111.5t8 113.5t3.5 105t0.5 97.5t-0.5 97.5t-3.5 105t-8 113.5t-16 111.5t-25.5 111.5t-38 100t-52.5 91t-69.5 70.5t-89.5 51.5q-16 6 -16 25q0 12 8.5 20t20.5 8q6 0 10 -2 q54 -22 98.5 -57t77.5 -74.5t59 -92.5t43.5 -102t29.5 -113.5t18.5 -116t10 -120t4.5 -115.5t1 -112t-1 -112t-4.5 -115.5t-10 -120t-18.5 -116t-29.5 -113.5t-43.5 -102t-59 -92.5t-77.5 -74.5t-98.5 -57l-10 -2q-12 0 -20.5 8.5t-8.5 20.5z" />
<glyph unicode="*" horiz-adv-x="731" d="M61 1202q0 10 7 20.5t18 10.5q6 0 18 -4l240 -70l-6 246q0 16 6.5 21.5t20.5 5.5q15 0 21.5 -5.5t6.5 -21.5l-6 -246l240 70q12 4 18 4q11 0 18 -10.5t7 -20.5q0 -18 -23 -24l-244 -56l154 -207q8 -12 8 -18q0 -10 -12.5 -19.5t-22.5 -9.5q-6 0 -16 13l-149 223 l-148 -223q-10 -13 -16 -13q-10 0 -22.5 9.5t-12.5 19.5q0 6 8 18l154 207l-244 56q-23 6 -23 24z" />
<glyph unicode="+" horiz-adv-x="929" d="M0 446q0 10 8 18.5t19 8.5h407v408q0 12 9.5 21t21.5 9t21.5 -9t9.5 -21v-408h407q11 0 19 -8.5t8 -18.5t-8 -18t-19 -8h-407v-406q0 -12 -9.5 -21t-21.5 -9t-21.5 9t-9.5 21v406h-407q-11 0 -19 8t-8 18z" />
<glyph unicode="," horiz-adv-x="288" d="M86 -221q0 6 4 14q41 70 41 123q0 30 -17.5 66.5t-17.5 52.5q0 20 11.5 32.5t33.5 12.5q27 0 39.5 -19t12.5 -67q0 -63 -20 -124t-48 -99q-8 -11 -21 -11q-7 0 -12.5 5.5t-5.5 13.5z" />
<glyph unicode="-" horiz-adv-x="577" d="M74 516q0 11 8 19t18 8h375q11 0 19 -8.5t8 -18.5t-8 -18.5t-19 -8.5h-375q-10 0 -18 8t-8 19z" />
<glyph unicode="." horiz-adv-x="288" d="M96 31q0 49 47 49t47 -49q0 -47 -47 -47t-47 47z" />
<glyph unicode="/" horiz-adv-x="833" d="M102 -170q0 6 2 12l566 1674q6 22 28 22q14 0 23.5 -10t9.5 -23q0 -4 -2 -10l-565 -1675q-7 -21 -31 -21q-13 0 -22 10t-9 21z" />
<glyph unicode="0" horiz-adv-x="1212" d="M111 690q0 379 117.5 548t377.5 169t378 -169.5t118 -547.5q0 -379 -118 -549t-378 -170t-377.5 170t-117.5 549zM174 690q0 -348 102 -505.5t330 -157.5t330 157.5t102 505.5t-102 506t-330 158t-330 -158t-102 -506z" />
<glyph unicode="1" horiz-adv-x="718" d="M109 1118q0 16 12 25l350 243q12 9 23 9q13 0 21.5 -8.5t8.5 -22.5v-1350q0 -12 -9.5 -21t-22.5 -9t-22 9t-9 21v1295l-305 -213q-9 -6 -19 -6q-11 0 -19.5 8t-8.5 20z" />
<glyph unicode="2" horiz-adv-x="1083" d="M102 29q0 75 27.5 141.5t74.5 118t108 98.5t128.5 89t134.5 84.5t128 90t108 99.5t74.5 119.5t27.5 144.5q0 151 -91.5 243.5t-264.5 92.5q-148 0 -229 -61t-119 -169q-6 -16 -27 -16q-12 0 -20 8.5t-8 20.5q0 6 2 12q41 124 143 193t258 69q201 0 311.5 -106.5 t110.5 -286.5q0 -79 -27.5 -150t-74.5 -126.5t-108 -107t-128.5 -95.5t-134.5 -87t-128 -87t-108 -89t-74.5 -100.5t-27.5 -114.5h805q12 0 20 -8t8 -20t-8 -20.5t-20 -8.5h-842q-12 0 -20.5 8.5t-8.5 20.5z" />
<glyph unicode="3" horiz-adv-x="1095" d="M84 215q0 12 8.5 20.5t20.5 8.5q17 0 26 -17q99 -196 381 -196q194 0 293.5 94.5t99.5 267.5q0 174 -84.5 268.5t-279.5 94.5h-150q-12 0 -20 8t-8 20q0 13 10 23l448 514h-636q-12 0 -20.5 8.5t-8.5 20.5t8.5 20t20.5 8h700q12 0 20.5 -8t8.5 -20q0 -10 -7 -19 l-454 -518h100q94 0 167 -23t119.5 -61t76.5 -93t42.5 -114.5t12.5 -128.5q0 -199 -118 -310.5t-341 -111.5q-319 0 -430 224q-6 12 -6 20z" />
<glyph unicode="4" horiz-adv-x="1083" d="M51 365q0 9 6 18l699 993q13 19 28 19q14 0 23.5 -9.5t9.5 -23.5v-969h166q12 0 20.5 -8t8.5 -20t-8.5 -20.5t-20.5 -8.5h-166v-322q0 -12 -9 -21t-22 -9q-14 0 -23 9t-9 21v322h-674q-12 0 -20.5 8.5t-8.5 20.5zM135 393h619v879z" />
<glyph unicode="5" horiz-adv-x="1128" d="M86 258q0 12 8.5 20.5t20.5 8.5q17 0 26 -17q110 -241 414 -241q185 0 290 97t105 306q0 204 -105.5 301.5t-289.5 97.5q-126 0 -213.5 -39t-167.5 -126q-13 -13 -24 -13q-12 0 -20.5 8.5t-8.5 20.5q0 6 2 14l127 660q4 22 26 22h660q12 0 20.5 -8t8.5 -20t-8.5 -20.5 t-20.5 -8.5h-635l-117 -578q57 64 150.5 105t220.5 41q212 0 336.5 -115.5t124.5 -341.5q0 -231 -124 -346t-337 -115q-345 0 -467 277q-2 4 -2 10z" />
<glyph unicode="6" horiz-adv-x="1159" d="M111 655q0 390 127 571t376 181q109 0 194 -32t128 -75q10 -10 10 -22q0 -11 -8 -19t-18 -8q-9 0 -21 9q-111 90 -285 90q-93 0 -166 -29t-124 -82.5t-85 -132t-49.5 -174.5t-15.5 -213v-119q50 118 153 192t255 74q213 0 340 -112.5t127 -333.5q0 -228 -126 -338.5 t-341 -110.5q-108 0 -190.5 33.5t-135 92t-85.5 146t-46.5 187.5t-13.5 225zM184 500q11 -228 111 -348.5t287 -120.5q91 0 161.5 20t125.5 63.5t84.5 120.5t29.5 185q0 201 -107.5 295t-293.5 94q-151 0 -246.5 -80t-151.5 -229z" />
<glyph unicode="7" horiz-adv-x="989" d="M61 1350q0 12 8.5 20t20.5 8h811q11 0 19 -8t8 -18q0 -97 -33.5 -185t-86.5 -160t-117.5 -145.5t-129 -157.5t-117.5 -179.5t-86.5 -228t-33.5 -286.5q0 -10 -9 -18t-20 -8t-22 8t-11 18q0 155 33 290.5t86 233t117 183.5t128 158.5t117 140.5t86 145.5t33 159.5h-772 q-12 0 -20.5 8.5t-8.5 20.5z" />
<glyph unicode="8" horiz-adv-x="1126" d="M96 369q0 157 82 255t223 130q-110 24 -174.5 105t-64.5 210q0 168 108 253t293 85q187 0 294.5 -85t107.5 -253q0 -129 -64.5 -210t-175.5 -105q141 -32 223 -130t82 -255q0 -194 -126 -296t-341 -102t-341 102t-126 296zM162 369q0 -118 54.5 -196t142 -111t204.5 -33 q88 0 159 19t126.5 59t86 106.5t30.5 155.5q0 178 -108 265t-294 87q-187 0 -294 -87t-107 -265zM221 1069q0 -145 91 -219t251 -74t251 74t91 219q0 144 -88.5 213.5t-253.5 69.5q-163 0 -252.5 -69.5t-89.5 -213.5z" />
<glyph unicode="9" horiz-adv-x="1159" d="M111 958q0 228 126 338.5t341 110.5q108 0 190.5 -33.5t135 -92t85.5 -146t46.5 -187.5t13.5 -225q0 -390 -127.5 -571t-376.5 -181q-109 0 -194 32t-128 75q-10 10 -10 22q0 10 8.5 18.5t18.5 8.5q9 0 20 -8q111 -90 285 -90q115 0 200.5 44t137.5 128t77 197.5 t25 260.5v119q-50 -118 -152.5 -192t-254.5 -74q-213 0 -340 112.5t-127 333.5zM176 958q0 -201 108 -295t294 -94q151 0 246 80t151 230q-11 228 -110.5 348.5t-286.5 120.5q-402 0 -402 -390z" />
<glyph unicode=":" horiz-adv-x="288" d="M96 31q0 49 47 49t47 -49q0 -47 -47 -47t-47 47zM96 885q0 49 47 49t47 -49q0 -47 -47 -47t-47 47z" />
<glyph unicode=";" horiz-adv-x="288" d="M86 -221q0 6 4 14q41 70 41 123q0 30 -17.5 66.5t-17.5 52.5q0 20 11.5 32.5t33.5 12.5q27 0 39.5 -19t12.5 -67q0 -63 -20 -124t-48 -99q-8 -11 -21 -11q-7 0 -12.5 5.5t-5.5 13.5zM96 885q0 49 47 49t47 -49q0 -47 -47 -47t-47 47z" />
<glyph unicode="&#x3c;" horiz-adv-x="704" d="M16 481q0 16 15 27l610 479q9 6 18 6q12 0 20.5 -8t8.5 -20q0 -15 -10 -23l-586 -461l586 -461q10 -8 10 -22q0 -12 -8.5 -20.5t-20.5 -8.5q-9 0 -18 6l-610 480q-15 11 -15 26z" />
<glyph unicode="=" horiz-adv-x="929" d="M0 291q0 10 8 18t19 8h876q11 0 19 -8t8 -18q0 -11 -8 -19t-19 -8h-876q-11 0 -19 8t-8 19zM0 604q0 10 8 18.5t19 8.5h876q11 0 19 -8.5t8 -18.5t-8 -18t-19 -8h-876q-11 0 -19 8t-8 18z" />
<glyph unicode="&#x3e;" horiz-adv-x="704" d="M16 -2q0 14 11 22l585 461l-585 461q-11 8 -11 23q0 12 8.5 20t20.5 8q9 0 18 -6l611 -479q14 -11 14 -27q0 -15 -14 -26l-611 -480q-9 -6 -18 -6q-12 0 -20.5 8.5t-8.5 20.5z" />
<glyph unicode="?" horiz-adv-x="944" d="M84 1042q0 168 96 266.5t283 98.5q183 0 289 -95.5t106 -256.5q0 -85 -25 -153t-65 -111.5t-88.5 -79.5t-97.5 -66t-89 -60.5t-65 -72.5t-25 -94q0 -64 43 -117q9 -11 9 -20q0 -13 -9.5 -21t-19.5 -8q-15 0 -25 10q-59 59 -59 156q0 60 25 107.5t65 81t88.5 64.5 t97.5 65.5t89 75.5t65 103t25 140q0 141 -88.5 220t-245.5 79q-318 0 -318 -312q0 -12 -9 -21t-21 -9t-21.5 9t-9.5 21zM367 31q0 49 47 49t47 -49q0 -47 -47 -47t-47 47z" />
<glyph unicode="@" horiz-adv-x="1642" d="M86 352q0 374 190 559t543 185q162 0 296 -43.5t233 -128.5t153.5 -219t54.5 -306q0 -57 -9 -112t-32.5 -113t-59.5 -101t-96.5 -70.5t-137.5 -27.5q-49 0 -84.5 8t-65 31.5t-43.5 63.5q-86 -103 -264 -103q-141 0 -210 62t-69 158q0 217 322 217h213v94q0 86 -63.5 131 t-159.5 45q-115 0 -195 -80q-12 -12 -24 -12q-10 0 -17.5 7.5t-7.5 18.5t8 19q89 100 236 100q53 0 100.5 -13t89 -40t66 -74.5t24.5 -109.5v-355q0 -71 36 -94.5t108 -23.5q57 0 104 18.5t86.5 60t61.5 116.5t22 179q0 307 -181 475t-495 168q-324 0 -498 -172t-174 -518 q0 -347 173.5 -517.5t498.5 -170.5q309 0 488 133q11 8 20 8q11 0 19 -8t8 -18q0 -13 -13 -23q-178 -145 -522 -145q-353 0 -543 184.5t-190 556.5zM547 195q0 -69 51.5 -118.5t165.5 -49.5q126 0 191 50t65 118v165h-229q-123 0 -183.5 -40t-60.5 -125z" />
<glyph unicode="A" horiz-adv-x="1261" d="M66 16q0 9 4 17l530 1339q8 23 31 23q25 0 33 -23l528 -1339q4 -8 4 -17q0 -14 -10 -23t-25 -9q-23 0 -33 24l-167 430h-660l-170 -432q-7 -22 -33 -22q-14 0 -23 9t-9 23zM322 498h618l-309 794z" />
<glyph unicode="B" horiz-adv-x="1138" d="M184 33v1313q0 13 9.5 22.5t23.5 9.5h361q204 0 303.5 -89t99.5 -251q0 -67 -21.5 -122.5t-56 -90.5t-71 -57t-74.5 -31q59 -8 109 -32.5t91.5 -67t65 -109.5t23.5 -151q0 -176 -104 -276.5t-296 -100.5h-430q-13 0 -23 10t-10 23zM250 57h397q166 0 250 84t84 236 q0 321 -338 321h-393v-641zM250 756h328q165 0 251 73t86 209q0 283 -337 283h-328v-565z" />
<glyph unicode="C" horiz-adv-x="1273" d="M90 688q0 357 164.5 538t466.5 181q144 0 264.5 -57.5t190.5 -155.5q8 -12 8 -23q0 -12 -8.5 -20t-20.5 -8q-15 0 -25 12q-64 87 -172 141t-237 54q-275 0 -420 -163.5t-145 -498.5q0 -178 37 -305.5t111 -205t176.5 -113t240.5 -35.5q122 0 230.5 48t178.5 142 q10 12 25 12q12 0 20.5 -8t8.5 -20q0 -10 -6 -19q-65 -99 -189 -156t-268 -57q-631 0 -631 717z" />
<glyph unicode="D" horiz-adv-x="1243" d="M184 33v1313q0 13 9.5 22.5t23.5 9.5h305q151 0 264.5 -37t197 -117.5t126.5 -214.5t43 -321q0 -186 -43 -320t-126.5 -214t-197 -117t-264.5 -37h-305q-13 0 -23 10t-10 23zM250 57h272q136 0 236 31.5t176 103t114.5 195.5t38.5 301q0 175 -38.5 299.5t-114 196.5 t-176.5 104.5t-236 32.5h-272v-1264z" />
<glyph unicode="E" horiz-adv-x="1048" d="M184 33v1313q0 13 9.5 22.5t23.5 9.5h694q12 0 20.5 -8t8.5 -20t-8.5 -20.5t-20.5 -8.5h-661v-598h516q12 0 20.5 -8.5t8.5 -20.5t-8.5 -20t-20.5 -8h-516v-609h686q12 0 20.5 -8t8.5 -20t-8.5 -20.5t-20.5 -8.5h-719q-13 0 -23 10t-10 23z" />
<glyph unicode="F" horiz-adv-x="1048" d="M184 33v1313q0 13 9.5 22.5t23.5 9.5h694q12 0 20.5 -8t8.5 -20t-8.5 -20.5t-20.5 -8.5h-661v-619h516q12 0 20.5 -8t8.5 -20t-8.5 -20.5t-20.5 -8.5h-516v-612q0 -13 -10 -23t-23 -10t-23 10t-10 23z" />
<glyph unicode="G" horiz-adv-x="1376" d="M90 688q0 719 631 719q144 0 264.5 -57.5t190.5 -155.5q8 -12 8 -23q0 -12 -8.5 -20t-20.5 -8q-15 0 -25 12q-64 87 -172 141t-237 54q-276 0 -420.5 -158t-144.5 -504q0 -178 37 -305.5t111 -205t176.5 -113t240.5 -35.5q154 0 270 57.5t180 142.5v359h-401 q-12 0 -20.5 8t-8.5 20t8.5 20.5t20.5 8.5h434q11 0 20 -8.5t9 -18.5v-378q0 -23 -19 -45q-87 -102 -203.5 -163t-289.5 -61q-631 0 -631 717z" />
<glyph unicode="H" horiz-adv-x="1318" d="M184 16v1346q0 14 10 23.5t23 9.5t23 -9.5t10 -23.5v-625h819v625q0 14 9.5 23.5t23.5 9.5t23.5 -9.5t9.5 -23.5v-1346q0 -13 -9.5 -22.5t-23.5 -9.5t-23.5 9.5t-9.5 22.5v662h-819v-662q0 -13 -9.5 -22.5t-23.5 -9.5t-23.5 9.5t-9.5 22.5z" />
<glyph unicode="I" horiz-adv-x="434" d="M184 16v1346q0 14 10 23.5t23 9.5t23 -9.5t10 -23.5v-1346q0 -13 -9.5 -22.5t-23.5 -9.5t-23.5 9.5t-9.5 22.5z" />
<glyph unicode="J" horiz-adv-x="821" d="M33 45q0 12 9 21.5t21 9.5q9 0 25 -8q74 -39 180 -39t176 49t99.5 129.5t29.5 191.5v963q0 14 9.5 23.5t23.5 9.5t23.5 -9.5t9.5 -23.5v-963q0 -94 -20.5 -169.5t-63.5 -134.5t-116 -91.5t-171 -32.5q-58 0 -119 13t-100 34q-16 10 -16 27z" />
<glyph unicode="K" horiz-adv-x="1122" d="M184 16v1346q0 14 10 23.5t23 9.5t23 -9.5t10 -23.5v-784l704 804q13 13 27 13q15 0 25 -10t10 -25t-10 -25l-476 -534l545 -764q6 -9 6 -21t-9.5 -22t-24.5 -10q-17 0 -29 16l-531 750l-237 -265v-469q0 -13 -9.5 -22.5t-23.5 -9.5t-23.5 9.5t-9.5 22.5z" />
<glyph unicode="L" horiz-adv-x="976" d="M184 29v1333q0 14 10 23.5t23 9.5t23 -9.5t10 -23.5v-1305h637q12 0 20 -8t8 -20t-8 -20.5t-20 -8.5h-674q-12 0 -20.5 8.5t-8.5 20.5z" />
<glyph unicode="M" horiz-adv-x="1568" d="M164 14v1350q0 12 9.5 21.5t21.5 9.5q17 0 26 -17l553 -1056l553 1056q9 17 27 17q12 0 21 -9.5t9 -21.5v-1350q0 -12 -9 -21t-21 -9t-21.5 9t-9.5 21v1229l-520 -993q-9 -21 -29 -21t-29 21l-520 993v-1229q0 -12 -9 -21t-21 -9t-21.5 9t-9.5 21z" />
<glyph unicode="N" horiz-adv-x="1271" d="M164 14v1350q0 12 9.5 21.5t21.5 9.5q15 0 24 -13l828 -1269v1251q0 12 9 21.5t21 9.5t21.5 -9.5t9.5 -21.5v-1348q0 -13 -9.5 -22.5t-23.5 -9.5q-19 0 -31 18l-819 1262v-1250q0 -12 -9 -21t-21 -9t-21.5 9t-9.5 21z" />
<glyph unicode="O" horiz-adv-x="1441" d="M90 688q0 357 164.5 538t466.5 181t466.5 -181t164.5 -538q0 -356 -164.5 -536.5t-466.5 -180.5t-466.5 180.5t-164.5 536.5zM156 688q0 -334 145 -496.5t420 -162.5t420 162.5t145 496.5q0 335 -145 498.5t-420 163.5t-420 -163.5t-145 -498.5z" />
<glyph unicode="P" horiz-adv-x="1110" d="M184 16v1330q0 13 9.5 22.5t23.5 9.5h432q165 0 269 -99t104 -286q0 -186 -103.5 -285.5t-269.5 -99.5h-399v-592q0 -13 -9.5 -22.5t-23.5 -9.5t-23.5 9.5t-9.5 22.5zM250 666h377q155 0 242 84t87 243q0 161 -87.5 244.5t-241.5 83.5h-377v-655z" />
<glyph unicode="Q" horiz-adv-x="1439" d="M90 688q0 357 164.5 538t466.5 181t466.5 -181t164.5 -538q0 -284 -111 -458.5t-311 -229.5q67 -12 119.5 -49t119.5 -105q11 -11 11 -24q0 -12 -10 -21.5t-23 -9.5t-23 10q-74 81 -154 125.5t-188 44.5h-61q-302 0 -466.5 180.5t-164.5 536.5zM156 688 q0 -334 145 -496.5t420 -162.5t420 162.5t145 496.5q0 335 -145 498.5t-420 163.5t-420 -163.5t-145 -498.5z" />
<glyph unicode="R" horiz-adv-x="1124" d="M184 16v1330q0 13 9.5 22.5t23.5 9.5h430q161 0 268 -108t107 -266q0 -160 -103 -268.5t-266 -108.5h-49q28 -38 73.5 -99.5t142 -192t159.5 -216t61 -82.5q7 -9 7 -21q0 -14 -10 -23t-25 -9q-18 0 -29 16l-453 627h-280v-611q0 -13 -9.5 -22.5t-23.5 -9.5t-23.5 9.5 t-9.5 22.5zM250 686h403q132 0 217.5 91t85.5 227q0 137 -86.5 227t-222.5 90h-397v-635z" />
<glyph unicode="S" horiz-adv-x="1095" d="M59 238q0 12 9.5 21t21.5 9q17 0 27 -16q141 -223 415 -223q412 0 412 323q0 90 -45 154.5t-117 101.5t-158.5 66t-173.5 59.5t-159 70t-117 108.5t-45 165q0 142 106 236t314 94q277 0 428 -203q6 -9 6 -18q0 -12 -9.5 -21.5t-21.5 -9.5q-15 0 -24 12q-30 39 -60.5 68.5 t-75.5 58t-106.5 43.5t-136.5 15q-181 0 -267.5 -77.5t-86.5 -197.5q0 -65 28 -115.5t75 -84t108 -60t129 -49t135.5 -46t128.5 -55.5t108 -72.5t75 -102.5t28 -140q0 -184 -123.5 -282.5t-354.5 -98.5q-307 0 -466 248q-7 11 -7 19z" />
<glyph unicode="T" horiz-adv-x="1089" d="M59 1350q0 12 8.5 20t20.5 8h913q12 0 20.5 -8t8.5 -20t-8.5 -20.5t-20.5 -8.5h-423v-1305q0 -13 -9.5 -22.5t-23.5 -9.5t-23.5 9.5t-9.5 22.5v1305h-424q-12 0 -20.5 8.5t-8.5 20.5z" />
<glyph unicode="U" horiz-adv-x="1284" d="M184 406v956q0 14 10 23.5t23 9.5t23 -9.5t10 -23.5v-956q0 -62 9.5 -113t37 -101.5t71 -85t116.5 -56t169 -21.5t169 21.5t116.5 56t70.5 85t36.5 101.5t9.5 113v956q0 14 9.5 23.5t22.5 9.5t23 -9.5t10 -23.5v-956q0 -70 -12 -129t-44 -117t-83 -98.5t-135 -65.5 t-193 -25t-193 25t-135.5 65.5t-84 98.5t-44.5 117t-12 129z" />
<glyph unicode="V" horiz-adv-x="1163" d="M39 1360q0 15 9.5 25t23.5 10q24 0 32 -23l480 -1268l475 1268q9 23 31 23q15 0 24.5 -10t9.5 -25l-4 -17l-506 -1339q-7 -20 -32 -20q-24 0 -31 20l-508 1339q-4 9 -4 17z" />
<glyph unicode="W" horiz-adv-x="1687" d="M39 1360q0 15 9.5 25t23.5 10q24 0 32 -23l357 -1261l352 1261q7 23 31 23q26 0 33 -23l350 -1255l356 1255q8 23 31 23q15 0 25 -10t10 -25q0 -6 -2 -12l-387 -1340q-7 -24 -33 -24q-25 0 -31 22l-352 1247l-352 -1247q-6 -22 -33 -22q-25 0 -31 22l-387 1344 q-2 6 -2 10z" />
<glyph unicode="X" horiz-adv-x="995" d="M8 16q0 12 6 21l447 672l-420 632q-6 9 -6 19q0 15 9.5 25t23.5 10q20 0 30 -17l400 -610l397 610q10 17 29 17q15 0 24.5 -10t9.5 -25q0 -10 -6 -19l-417 -632l444 -672q6 -9 6 -21q0 -14 -10 -23t-25 -9q-17 0 -28 16l-424 651l-426 -651q-10 -16 -31 -16 q-14 0 -23.5 9.5t-9.5 22.5z" />
<glyph unicode="Y" horiz-adv-x="1030" d="M35 1360q0 15 9.5 25t23.5 10q20 0 30 -17l416 -665l414 665q11 17 28 17q15 0 25 -10t10 -25q0 -12 -6 -21l-438 -688v-635q0 -13 -9.5 -22.5t-23.5 -9.5t-23.5 9.5t-9.5 22.5v635l-440 688q-6 9 -6 21z" />
<glyph unicode="Z" horiz-adv-x="1017" d="M23 29q0 9 6 18l850 1274h-783q-12 0 -20 8.5t-8 20.5t8 20t20 8h832q12 0 20 -8t8 -20q0 -10 -6 -19l-846 -1274h857q12 0 20 -8t8 -20t-8 -20.5t-20 -8.5h-912q-11 0 -18.5 8.5t-7.5 20.5z" />
<glyph unicode="[" horiz-adv-x="477" d="M150 -272v1757q0 11 8 18.5t18 7.5h189q11 0 18.5 -7.5t7.5 -18.5t-8 -19t-18 -8h-154v-1704h154q11 0 18.5 -8t7.5 -18q0 -11 -8 -19t-18 -8h-189q-10 0 -18 8t-8 19z" />
<glyph unicode="\" horiz-adv-x="835" d="M102 1505q0 13 10 23t23 10q23 0 29 -22l565 -1674q2 -6 2 -12q0 -11 -9 -21t-22 -10q-23 0 -30 21l-566 1675q-2 6 -2 10z" />
<glyph unicode="]" horiz-adv-x="479" d="M86 -272q0 10 8 18t19 8h153v1704h-153q-11 0 -19 8t-8 19q0 10 8 18t19 8h188q11 0 19 -8t8 -18v-1757q0 -10 -8 -18.5t-19 -8.5h-188q-11 0 -19 8.5t-8 18.5z" />
<glyph unicode="^" horiz-adv-x="958" d="M90 784q0 10 6 19l357 594q11 18 26 18q16 0 27 -18l356 -594q6 -9 6 -19q0 -12 -8 -20t-20 -8q-19 0 -27 16l-334 563l-334 -563q-8 -16 -26 -16q-12 0 -20.5 8t-8.5 20z" />
<glyph unicode="_" horiz-adv-x="831" d="M-43 -141q0 10 8 18t19 8h864q10 0 18 -7.5t8 -18.5t-8 -19t-18 -8h-864q-10 0 -18.5 8t-8.5 19z" />
<glyph unicode="`" horiz-adv-x="757" d="M246.5 1324q0.5 13 11.5 22q24 21 45 -3l203 -241q13 -16 -4 -33t-33 2l-213 229q-10 11 -9.5 24z" />
<glyph unicode="a" d="M74 258q0 134 101.5 209.5t277.5 75.5h315v94q0 129 -79.5 198.5t-221.5 69.5q-78 0 -136 -23t-87 -52t-58 -74q-9 -15 -24 -15q-12 0 -20.5 8.5t-8.5 20.5q0 9 6 18q45 74 127 122t201 48q182 0 270 -89t88 -248v-607q0 -12 -8 -20t-20 -8t-20.5 8t-8.5 20v121 q-49 -79 -139.5 -119.5t-198.5 -40.5q-171 0 -263.5 74t-92.5 209zM137 258q0 -109 73.5 -169t219.5 -60q92 0 167 31t123 97.5t48 159.5v175h-315q-144 0 -230 -59.5t-86 -174.5z" />
<glyph unicode="b" horiz-adv-x="1038" d="M143 371v1056q0 12 9.5 21.5t21.5 9.5t21.5 -9.5t9.5 -21.5v-663q4 8 11.5 21t36 46.5t63.5 59t95 46.5t128 21q201 0 310 -122t109 -369t-109 -370.5t-310 -123.5q-178 0 -287 102.5t-109 295.5zM205 371q0 -173 91 -258.5t243 -85.5q176 0 265 106.5t89 333.5 q0 224 -89 331t-265 107q-69 0 -128.5 -24.5t-95.5 -59.5t-62.5 -70.5t-36.5 -60.5l-11 -24v-295z" />
<glyph unicode="c" horiz-adv-x="901" d="M80 467q0 247 109.5 369t310.5 122q202 0 303 -137q6 -9 6 -18q0 -11 -8.5 -19t-18.5 -8q-13 0 -22 12q-21 24 -34.5 37t-45.5 35.5t-77 33.5t-103 11q-176 0 -265.5 -107t-89.5 -331q0 -226 89.5 -333t265.5 -107q65 0 123 18.5t85 35.5t64 46q9 6 16 6q10 0 18.5 -8.5 t8.5 -18.5q0 -12 -12 -22q-24 -20 -43.5 -32.5t-59 -34t-91 -33t-109.5 -11.5q-201 0 -310.5 123.5t-109.5 370.5z" />
<glyph unicode="d" horiz-adv-x="1028" d="M80 467q0 247 109.5 369t310.5 122q71 0 131 -20t96 -48.5t61.5 -57t35.5 -48.5l10 -20v663q0 12 9 21.5t21 9.5t21.5 -9.5t9.5 -21.5v-1056q0 -193 -108.5 -295.5t-286.5 -102.5q-201 0 -310.5 123.5t-109.5 370.5zM145 467q0 -226 89.5 -333t265.5 -107q152 0 243 85.5 t91 258.5v295q-3 10 -10 26t-34.5 57t-62 72.5t-95.5 57.5t-132 26q-176 0 -265.5 -107t-89.5 -331z" />
<glyph unicode="e" horiz-adv-x="954" d="M82 467q0 236 110 363.5t308 127.5q97 0 170 -28.5t113 -69t64 -97.5t31 -102t7 -94q0 -50 -4 -75q-6 -33 -45 -33h-691q0 -218 97 -325t280 -107q72 0 131 17t90 36t68 49q9 6 16 6q11 0 19 -8t8 -18q0 -11 -12 -23q-120 -113 -320 -113q-211 0 -325.5 121t-114.5 373z M145 510h678q2 41 2 57q0 67 -14.5 123t-49 106.5t-101 79.5t-160.5 29q-170 0 -259.5 -104t-95.5 -291z" />
<glyph unicode="f" horiz-adv-x="563" d="M51 903q0 11 8.5 19t18.5 8h117v129q0 70 20 130.5t60.5 109t108 76.5t155.5 28q10 0 18 -8t8 -19q0 -10 -7.5 -18t-18.5 -8q-146 0 -214.5 -78t-68.5 -213v-129h242q10 0 18 -8t8 -19t-8 -18.5t-18 -7.5h-242v-863q0 -12 -9.5 -21t-21.5 -9t-21 9t-9 21v863h-117 q-11 0 -19 8t-8 18z" />
<glyph unicode="g" horiz-adv-x="954" d="M76 -139q0 91 52.5 150.5t125.5 76.5q-32 9 -51.5 17t-44.5 24.5t-37 45t-12 67.5q0 104 104 139q-96 87 -96 246q0 154 95 242.5t267 88.5q144 0 236 -61q18 57 65 89t119 32q11 0 19 -8t8 -19q0 -10 -8 -18t-19 -8q-65 0 -97 -25t-46 -78q86 -89 86 -235 q0 -154 -95.5 -243t-267.5 -89q-139 0 -225 53q-88 -22 -88 -106q0 -57 44 -84t146 -27h256q143 0 233.5 -66t90.5 -196q0 -98 -57.5 -162.5t-151.5 -91.5t-223 -27q-84 0 -156 13.5t-135.5 43t-100 85t-36.5 131.5zM139 -139q0 -60 28.5 -104t81 -68.5t116 -35.5t141.5 -11 q366 0 366 227q0 109 -71.5 158t-188.5 49h-250q-111 -15 -167 -71t-56 -144zM180 627q0 -133 76 -206t223 -73t223 73t76 206t-76 205.5t-223 72.5t-223 -72.5t-76 -205.5z" />
<glyph unicode="h" horiz-adv-x="1015" d="M143 14v1413q0 12 9.5 21.5t21.5 9.5t21.5 -9.5t9.5 -21.5v-665q13 34 36.5 65.5t61 62.5t95.5 49.5t128 18.5q367 0 367 -362v-582q0 -12 -9.5 -21t-21.5 -9t-21.5 9t-9.5 21v582q0 67 -13.5 119t-46 97t-95 69t-152.5 24q-80 0 -143 -28.5t-100.5 -76.5t-56.5 -105.5 t-19 -119.5v-561q0 -12 -9.5 -21t-21.5 -9t-21.5 9t-9.5 21z" />
<glyph unicode="i" horiz-adv-x="358" d="M147 1255q0 43 37 43t37 -43t-37 -43t-37 43zM154 14v901q0 12 9 21.5t21 9.5t21.5 -9.5t9.5 -21.5v-901q0 -12 -9.5 -21t-21.5 -9t-21 9t-9 21z" />
<glyph unicode="j" horiz-adv-x="368" d="M-86 -385q0 11 8 19t19 8q98 0 160.5 69t62.5 170v1034q0 12 9.5 21.5t21.5 9.5t21 -9.5t9 -21.5v-1034q0 -124 -80.5 -208.5t-203.5 -84.5q-11 0 -19 8t-8 19zM156 1255q0 43 37 43q36 0 36 -43t-36 -43q-37 0 -37 43z" />
<glyph unicode="k" horiz-adv-x="897" d="M143 14v1413q0 12 9.5 21.5t21.5 9.5t21.5 -9.5t9.5 -21.5v-974l579 485q11 8 21 8q12 0 21.5 -9.5t9.5 -21.5q0 -14 -13 -24l-401 -330l424 -526q8 -11 8 -21q0 -12 -9.5 -21t-21.5 -9t-22 10l-426 530l-170 -145v-365q0 -12 -9.5 -21t-21.5 -9t-21.5 9t-9.5 21z" />
<glyph unicode="l" horiz-adv-x="399" d="M143 205v1222q0 12 9.5 21.5t21.5 9.5t21.5 -9.5t9.5 -21.5v-1222q0 -88 31 -128t98 -40q10 0 18 -8t8 -19q0 -10 -8 -18t-18 -8q-93 0 -142 56.5t-49 164.5z" />
<glyph unicode="m" horiz-adv-x="1654" d="M143 14v901q0 12 9.5 21.5t21.5 9.5t21.5 -9.5t9.5 -21.5v-155q26 79 104.5 138.5t206.5 59.5q138 0 219 -51.5t111 -138.5q26 76 107.5 133t213.5 57q86 0 151 -20t105 -53t65 -81t34.5 -98t9.5 -110v-582q0 -12 -9.5 -21t-21.5 -9t-21.5 9t-9.5 21v582q0 311 -303 311 q-152 0 -225.5 -88t-73.5 -225v-580q0 -12 -9 -21t-21 -9t-21.5 9t-9.5 21v582q0 53 -7.5 96.5t-27.5 84.5t-52.5 68.5t-86 44.5t-123.5 17q-78 0 -138 -30.5t-95.5 -82t-53.5 -113.5t-18 -130v-537q0 -12 -9.5 -21t-21.5 -9t-21.5 9t-9.5 21z" />
<glyph unicode="n" horiz-adv-x="1015" d="M143 14v901q0 12 9.5 21.5t21.5 9.5t21.5 -9.5t9.5 -21.5v-153q13 34 37 66t62 62.5t95.5 49t126.5 18.5q367 0 367 -362v-582q0 -12 -9.5 -21t-21.5 -9t-21.5 9t-9.5 21v582q0 67 -13.5 119t-46 97t-95 69t-152.5 24q-80 0 -143 -28.5t-100.5 -76.5t-56.5 -105.5 t-19 -119.5v-561q0 -12 -9.5 -21t-21.5 -9t-21.5 9t-9.5 21z" />
<glyph unicode="o" horiz-adv-x="999" d="M80 467q0 247 109.5 369t310.5 122t310.5 -122t109.5 -369t-109.5 -370.5t-310.5 -123.5t-310.5 123.5t-109.5 370.5zM145 467q0 -440 355 -440q354 0 354 440q0 438 -354 438q-355 0 -355 -438z" />
<glyph unicode="p" horiz-adv-x="1042" d="M143 -381v1296q0 12 9.5 21.5t21.5 9.5t21.5 -9.5t9.5 -21.5v-159q82 202 338 202q201 0 310.5 -122t109.5 -369t-109.5 -370.5t-310.5 -123.5q-55 0 -103 11t-81.5 28t-61 38t-44 42.5t-28 38.5t-15.5 28l-5 11v-551q0 -12 -9.5 -21.5t-21.5 -9.5t-21.5 9.5t-9.5 21.5z M201 467q0 -225 92.5 -332.5t249.5 -107.5q176 0 265 106.5t89 333.5q0 438 -360 438q-160 0 -248 -108t-88 -330z" />
<glyph unicode="q" horiz-adv-x="1005" d="M92 467q0 247 109.5 369t310.5 122q181 0 290 -101.5t109 -293.5v-944q0 -12 -9 -21.5t-21 -9.5t-21.5 9.5t-9.5 21.5v551q-4 -8 -11 -21.5t-35.5 -47.5t-63.5 -59.5t-96 -47t-132 -21.5q-201 0 -310.5 123.5t-109.5 370.5zM158 467q0 -227 89 -333.5t265 -106.5 q70 0 130.5 24.5t97 59.5t63 70.5t37.5 60.5l10 24v297q0 172 -93 257t-245 85q-176 0 -265 -107t-89 -331z" />
<glyph unicode="r" horiz-adv-x="604" d="M143 14v901q0 12 9.5 21.5t21.5 9.5t21.5 -9.5t9.5 -21.5v-200q34 109 123 175t227 66q11 0 19 -8t8 -18t-8 -18.5t-19 -8.5q-114 0 -194.5 -55.5t-118 -145.5t-37.5 -204v-484q0 -12 -9.5 -21t-21.5 -9t-21.5 9t-9.5 21z" />
<glyph unicode="s" horiz-adv-x="817" d="M53 135q0 11 8.5 19t18.5 8t18 -8q56 -63 129 -95t183 -32q58 0 106.5 11t87.5 33.5t60.5 62.5t21.5 93t-32.5 93.5t-84 65.5t-114 47t-125 46t-114 54.5t-84 80t-32.5 115.5q0 113 83.5 171t217.5 58q197 0 306 -122q8 -11 8 -21q0 -11 -8.5 -19t-18.5 -8q-9 0 -18 9 q-56 56 -119 82t-150 26q-103 0 -171 -42t-68 -134q0 -55 32.5 -96t84 -66.5t114 -47t125 -45t114 -53.5t84 -79t32.5 -115q0 -125 -94 -189.5t-244 -64.5q-120 0 -214 42.5t-135 99.5q-8 11 -8 20z" />
<glyph unicode="t" horiz-adv-x="542" d="M41 903q0 11 8.5 19t18.5 8h127v250q0 12 9 21t21 9t21.5 -9t9.5 -21v-250h184q10 0 18.5 -8t8.5 -19q0 -10 -8 -18t-19 -8h-184v-652q0 -90 46.5 -139t123.5 -49q10 0 18.5 -8.5t8.5 -18.5t-8 -18t-19 -8q-110 0 -170.5 67t-60.5 174v652h-127q-11 0 -19 8t-8 18z" />
<glyph unicode="u" horiz-adv-x="995" d="M123 338v577q0 12 9.5 21.5t21.5 9.5t21 -9.5t9 -21.5v-577q0 -69 13 -120.5t46 -97t97 -69.5t158 -24t158 24t96.5 69.5t45.5 97t13 120.5v577q0 12 9.5 21.5t21.5 9.5t21 -9.5t9 -21.5v-577q0 -61 -9 -111t-34 -99t-65.5 -82t-108 -53t-157.5 -20t-157.5 20t-108.5 53 t-66 82t-34 99t-9 111z" />
<glyph unicode="v" horiz-adv-x="876" d="M37 915q0 12 9.5 21.5t21.5 9.5q21 0 28 -20l342 -848l342 848q7 20 29 20q12 0 21.5 -9.5t9.5 -21.5q0 -8 -4 -16l-371 -899q-8 -16 -27 -16q-18 0 -26 16l-371 899q-4 8 -4 16z" />
<glyph unicode="w" horiz-adv-x="1343" d="M37 915q0 12 8.5 21.5t20.5 9.5q21 0 28 -20l301 -842l250 844q5 18 25 18q22 0 26 -18l250 -844l303 842q7 20 29 20q12 0 20.5 -8t8.5 -20q0 -7 -4 -19l-328 -895q-7 -20 -29 -20q-24 0 -31 20l-243 827l-246 -827q-7 -20 -31 -20q-19 0 -26 20l-328 895q-4 12 -4 16z " />
<glyph unicode="x" horiz-adv-x="788" d="M33 14q0 10 6 19l323 442l-315 422q-6 9 -6 18q0 12 9.5 21.5t21.5 9.5q16 0 26 -14l301 -412l291 410q12 16 27 16q12 0 21.5 -9.5t9.5 -21.5q0 -7 -7 -18l-309 -430l318 -434q6 -9 6 -19q0 -12 -9.5 -21t-21.5 -9q-16 0 -25 12l-305 432l-307 -432q-9 -12 -25 -12 q-12 0 -21 9t-9 21z" />
<glyph unicode="y" horiz-adv-x="876" d="M4 -385q0 11 8 19t19 8q48 0 86.5 8t68 19.5t56 37.5t45 49.5t41.5 69t38.5 81.5t41.5 101l-367 891q-4 8 -4 16q0 12 9.5 21.5t21.5 9.5q21 0 28 -20l342 -848l342 848q7 20 29 20q12 0 21.5 -9.5t9.5 -21.5q0 -8 -4 -16l-433 -1042q-63 -150 -146 -209.5t-226 -59.5 q-11 0 -19 8t-8 19z" />
<glyph unicode="z" horiz-adv-x="794" d="M45 27q0 7 6 16l608 834h-557q-10 0 -18 7.5t-8 18.5t8 19t18 8h611q10 0 18 -8t8 -19q0 -10 -8 -22l-602 -828h598q11 0 19 -8t8 -18q0 -11 -8 -19t-19 -8h-655q-10 0 -18.5 8t-8.5 19z" />
<glyph unicode="{" horiz-adv-x="602" d="M55 606q0 10 7.5 17.5t17.5 7.5h20q99 0 156 54t57 169q0 81 -13 240t-13 245q0 80 51.5 126t134.5 46q11 0 19 -8t8 -18q0 -11 -8 -19t-19 -8q-57 0 -89 -30t-32 -89q0 -80 6.5 -244t6.5 -243q0 -109 -54.5 -177.5t-148.5 -68.5q94 0 148.5 -68.5t54.5 -177.5 q0 -79 -6.5 -243t-6.5 -244q0 -59 32 -89t89 -30q11 0 19 -8t8 -18t-8 -18.5t-19 -8.5q-83 0 -134.5 46.5t-51.5 125.5q0 86 13 245.5t13 239.5q0 115 -57 169.5t-156 54.5h-20q-11 0 -18 7t-7 17z" />
<glyph unicode="|" horiz-adv-x="446" d="M193 -297v1921q0 12 9 21.5t21 9.5t21.5 -9.5t9.5 -21.5v-1921q0 -12 -9.5 -21.5t-21.5 -9.5t-21 9.5t-9 21.5z" />
<glyph unicode="}" horiz-adv-x="602" d="M102 -272q0 10 8 18t19 8q57 0 89 30t32 89q0 80 -6 244t-6 243q0 109 54 177.5t148 68.5q-94 0 -148 68.5t-54 177.5q0 79 6 243t6 244q0 59 -32 89t-89 30q-11 0 -19 8t-8 19q0 10 8 18t19 8q83 0 134.5 -46t51.5 -126q0 -86 -13 -245t-13 -240q0 -115 57 -169t156 -54 h20q10 0 17.5 -7.5t7.5 -17.5t-7 -17t-18 -7h-20q-99 0 -156 -54.5t-57 -169.5q0 -80 13 -239.5t13 -245.5q0 -79 -51.5 -125.5t-134.5 -46.5q-11 0 -19 8.5t-8 18.5z" />
<glyph unicode="~" horiz-adv-x="976" d="M104 549q0 4 7 18q12 23 29 46t44 48.5t64.5 41.5t79.5 16q52 0 103.5 -23t85.5 -50t79.5 -50t87.5 -23q105 0 174 125q10 19 25 19q10 0 17 -8t7 -17q0 -8 -4 -16q-27 -58 -83 -106t-136 -48q-47 0 -97 22.5t-85.5 49.5t-83 49.5t-90.5 22.5q-29 0 -54.5 -9.5t-41 -20 t-34 -32t-24.5 -31.5t-20 -32q-10 -17 -25 -17q-11 0 -18 7t-7 18z" />
<glyph unicode="&#xa1;" horiz-adv-x="288" d="M96 911q0 47 47 47t47 -47q0 -49 -47 -49t-47 49zM106 -418l17 1088q0 18 20 18q21 0 21 -18l16 -1088q0 -35 -37 -35t-37 35z" />
<glyph unicode="&#xa2;" horiz-adv-x="901" d="M82 467q0 237 100.5 358.5t288.5 130.5v140q0 12 8.5 20t20.5 8t20 -8t8 -20v-140q188 -10 285 -135q6 -9 6 -18q0 -11 -8 -19t-18 -8q-14 0 -23 12q-19 22 -35 36.5t-48.5 36t-80 33t-106.5 11.5q-357 0 -357 -438q0 -226 90 -333t267 -107q65 0 123 18.5t85 35.5t64 46 q9 6 16 6q10 0 18.5 -8.5t8.5 -18.5q0 -12 -12 -22q-127 -101 -275 -109v-165q0 -12 -8 -20.5t-20 -8.5t-20.5 8.5t-8.5 20.5v165q-188 9 -288.5 131.5t-100.5 360.5z" />
<glyph unicode="&#xa3;" horiz-adv-x="1210" d="M154 637q0 11 8 19t18 8h111q-40 72 -60.5 115.5t-40.5 112t-20 132.5q0 168 117.5 275.5t312.5 107.5q359 0 438 -268q4 -12 4 -19q0 -12 -9 -21t-21 -9q-24 0 -31 26q-43 122 -131 180t-250 58q-161 0 -265 -90t-104 -240q0 -82 30 -160.5t97 -199.5h392q10 0 18 -8 t8 -19t-8 -19t-18 -8h-369q57 -117 57 -241q0 -77 -45 -157t-102 -128q87 41 172 41q60 0 115 -16.5t90 -36t81 -36t89 -16.5q182 0 252 146q8 16 24 16q12 0 20.5 -7.5t8.5 -18.5t-4 -19q-47 -93 -121.5 -131.5t-179.5 -38.5q-51 0 -102 16.5t-86.5 36t-85.5 36t-99 16.5 q-141 0 -244 -82q-12 -8 -22 -8q-14 0 -22.5 8.5t-8.5 21.5q0 16 14 27q76 62 135.5 153t59.5 177q0 110 -64 241h-133q-10 0 -18 8t-8 19z" />
<glyph unicode="&#xa4;" horiz-adv-x="956" d="M61 246q0 11 11 22l125 131q-80 104 -80 240q0 139 82 240l-127 135q-11 11 -11 22q0 10 8.5 18.5t18.5 8.5q11 0 21 -10l129 -133q102 92 243 92q140 0 238 -88l127 129q10 10 20 10t18.5 -8.5t8.5 -18.5q0 -12 -10 -22l-125 -131q82 -106 82 -244q0 -141 -82 -242 l125 -129q10 -10 10 -22q0 -10 -8.5 -18.5t-18.5 -8.5t-20 10l-125 127q-96 -90 -240 -90q-143 0 -245 92l-127 -129q-10 -10 -21 -10q-10 0 -18.5 8.5t-8.5 18.5zM174 639q0 -134 87 -227t220 -93t217 92.5t84 227.5t-84 227t-217 92t-220 -92.5t-87 -226.5z" />
<glyph unicode="&#xa5;" horiz-adv-x="1028" d="M35 1360q0 15 9.5 25t23.5 10q20 0 30 -17l416 -665l414 665q11 17 28 17q15 0 25 -10t10 -25q0 -12 -6 -21l-438 -688h280q11 0 19 -8t8 -18q0 -11 -8 -19t-19 -8h-280v-154h280q11 0 19 -8t8 -18t-8 -18.5t-19 -8.5h-280v-375q0 -13 -9.5 -22.5t-23.5 -9.5t-23.5 9.5 t-9.5 22.5v375h-282q-11 0 -19 8.5t-8 18.5t8 18t19 8h282v154h-282q-11 0 -19 8t-8 19q0 10 8 18t19 8h282l-440 688q-6 9 -6 21z" />
<glyph unicode="&#xa6;" horiz-adv-x="446" d="M193 -297v866q0 12 9 21.5t21 9.5t21.5 -9.5t9.5 -21.5v-866q0 -12 -9.5 -21.5t-21.5 -9.5t-21 9.5t-9 21.5zM193 760v864q0 12 9 21.5t21 9.5t21.5 -9.5t9.5 -21.5v-864q0 -12 -9.5 -21.5t-21.5 -9.5t-21 9.5t-9 21.5z" />
<glyph unicode="&#xa7;" horiz-adv-x="1032" d="M92 580q0 159 137 282q-104 94 -104 234q0 136 101.5 223.5t303.5 87.5q127 0 229.5 -48.5t160.5 -127.5q6 -9 6 -21q0 -10 -8 -17t-19 -7q-15 0 -22 10q-23 27 -44 47t-63.5 49t-104 45.5t-135.5 16.5q-176 0 -258 -72.5t-82 -185.5q0 -81 41.5 -139.5t107 -92 t145.5 -60.5t160 -56t145.5 -67t107 -104t41.5 -157q0 -84 -39 -162.5t-98 -122.5q104 -91 104 -229q0 -136 -103.5 -227t-305.5 -91q-125 0 -224.5 48t-160.5 128q-9 12 -9 21q0 12 8 20.5t19 8.5q19 0 29 -17q40 -59 125.5 -107t212.5 -48q175 0 259.5 75t84.5 189 q0 82 -41.5 141t-107 92.5t-145.5 60t-160 55t-145.5 65.5t-107 103t-41.5 157zM158 580q0 -83 39.5 -139.5t108.5 -89.5t142 -55.5t161.5 -55.5t146.5 -72q116 83 116 252q0 69 -29 122t-74.5 83.5t-110 58t-126.5 45t-134 46t-122 59.5q-118 -88 -118 -254z" />
<glyph unicode="&#xa8;" horiz-adv-x="507" d="M45 1161q0 47 45 47t45 -47t-45 -47t-45 47zM373 1161q0 47 45 47t45 -47t-45 -47t-45 47z" />
<glyph unicode="&#xa9;" horiz-adv-x="1662" d="M117 688q0 358 177.5 538.5t504.5 180.5t504.5 -180.5t177.5 -538.5q0 -356 -177.5 -536.5t-504.5 -180.5t-504.5 180.5t-177.5 536.5zM178 688q0 -663 621 -663q620 0 620 663q0 666 -620 666q-621 0 -621 -666zM467 688q0 197 85.5 287t248.5 90q89 0 158 -38.5 t94 -84.5q4 -8 4 -16q0 -10 -7 -17.5t-16 -7.5q-14 0 -22 10q-75 101 -211 101q-67 0 -115.5 -15.5t-85 -52t-54.5 -100t-18 -156.5q0 -94 18 -157t55 -97t84 -47.5t116 -13.5q67 0 123.5 24.5t85.5 73.5q7 12 22 12q9 0 17 -7t8 -17q0 -12 -6 -21q-38 -54 -105.5 -87.5 t-144.5 -33.5q-164 0 -249 87t-85 284z" />
<glyph unicode="&#xaa;" horiz-adv-x="780" d="M82 584q0 10 8 18t19 8h561q10 0 18 -8t8 -18q0 -11 -8 -19t-18 -8h-561q-11 0 -19 8.5t-8 18.5zM123 936q0 86 67.5 139t186.5 53h213v54q0 172 -195 172q-53 0 -94 -15.5t-55 -27.5t-35 -35q-8 -8 -18 -8q-11 0 -19 8t-8 18q0 8 6 17q28 40 88.5 68t134.5 28 q126 0 188 -64.5t62 -173.5v-397q0 -10 -8.5 -18.5t-18.5 -8.5t-18 8t-8 19v76q-33 -54 -91.5 -81.5t-131.5 -27.5q-116 0 -181 53t-65 144zM180 936q0 -69 48.5 -106t140.5 -37q93 0 157 47.5t64 132.5v104h-219q-88 0 -139.5 -35.5t-51.5 -105.5z" />
<glyph unicode="&#xab;" horiz-adv-x="950" d="M123 434q0 9 6 15l360 423q9 9 21 9t20.5 -8.5t8.5 -20.5q0 -11 -7 -18l-346 -400l346 -399q7 -7 7 -19t-8.5 -20t-20.5 -8q-13 0 -21 8l-360 424q-6 6 -6 14zM410 434q0 9 6 15l360 423q9 9 21 9t20 -8.5t8 -20.5t-6 -18l-346 -400l346 -399q6 -6 6 -19q0 -12 -8 -20 t-20 -8q-13 0 -21 8l-360 424q-6 6 -6 14z" />
<glyph unicode="&#xac;" horiz-adv-x="1153" d="M106 602q0 10 8 18.5t19 8.5h885q10 0 18 -8t8 -19v-473q0 -12 -9 -21.5t-21 -9.5t-21.5 9.5t-9.5 21.5v446h-850q-11 0 -19 8.5t-8 18.5z" />
<glyph unicode="&#xad;" horiz-adv-x="577" d="M74 516q0 11 8 19t18 8h375q11 0 19 -8.5t8 -18.5t-8 -18.5t-19 -8.5h-375q-10 0 -18 8t-8 19z" />
<glyph unicode="&#xae;" horiz-adv-x="772" d="M86 1096q0 156 78 233.5t221 77.5q146 0 223.5 -77t77.5 -234t-78 -235.5t-223 -78.5q-143 0 -221 78.5t-78 235.5zM131 1096q0 -273 254 -273q256 0 256 273q0 270 -256 270q-124 0 -189 -67t-65 -203zM274 956v277q0 9 7 15.5t16 6.5h119q45 0 69.5 -28.5t24.5 -69.5 q0 -38 -23.5 -65.5t-60.5 -30.5l70 -86q8 -8 8 -19q0 -9 -7 -15.5t-16 -6.5q-11 0 -20 12l-84 115h-58v-105q0 -9 -6.5 -15.5t-15.5 -6.5t-16 6.5t-7 15.5zM319 1102h87q27 0 42 15t15 40q0 57 -57 57h-87v-112z" />
<glyph unicode="&#xaf;" horiz-adv-x="782" d="M150 1161q0 11 8 19t18 8h430q10 0 18.5 -8t8.5 -19q0 -10 -8 -18t-19 -8h-430q-10 0 -18 7.5t-8 18.5z" />
<glyph unicode="&#xb0;" horiz-adv-x="729" d="M86 1126q0 117 82 199t199 82t198.5 -82t81.5 -199t-81.5 -198.5t-198.5 -81.5t-199 81.5t-82 198.5zM139 1124q0 -93 65 -159t161 -66t162.5 66t66.5 159t-66.5 161.5t-162.5 68.5q-95 0 -160.5 -68t-65.5 -162z" />
<glyph unicode="&#xb1;" horiz-adv-x="929" d="M0 27q0 10 8 18t19 8h876q11 0 19 -8t8 -18q0 -11 -8 -19t-19 -8h-876q-11 0 -19 8t-8 19zM0 627q0 10 8 18t19 8h407v408q0 12 9.5 21.5t21.5 9.5t21.5 -9.5t9.5 -21.5v-408h407q11 0 19 -8t8 -18q0 -11 -8 -19t-19 -8h-407v-405q0 -12 -9.5 -21.5t-21.5 -9.5t-21.5 9.5 t-9.5 21.5v405h-407q-11 0 -19 8t-8 19z" />
<glyph unicode="&#xb2;" horiz-adv-x="530" d="M49 893q0 48 20.5 86.5t54 64t73.5 48t79.5 43.5t73 44.5t54 58t20.5 77.5q0 60 -39.5 97.5t-122.5 37.5q-58 0 -91.5 -25t-55.5 -73q-6 -15 -21 -15q-9 0 -15.5 7t-6.5 16q0 6 2 12q20 56 70.5 89.5t117.5 33.5q101 0 158 -49.5t57 -130.5q0 -54 -28 -98t-69.5 -71.5 t-90 -55.5t-90 -50.5t-69.5 -54.5t-28 -70h349q9 0 15.5 -6.5t6.5 -15.5t-6.5 -16t-15.5 -7h-379q-9 0 -16 7t-7 16z" />
<glyph unicode="&#xb3;" horiz-adv-x="526" d="M47 979q0 20 21 20q11 0 18 -10q27 -45 65.5 -65.5t100.5 -20.5q89 0 130.5 35.5t41.5 112.5q0 74 -37.5 110.5t-128.5 36.5h-65q-6 0 -9.5 5.5t-3.5 10.5q0 7 4 11l195 213h-279q-9 0 -15.5 6.5t-6.5 15.5t6.5 16t15.5 7h326q9 0 16 -7t7 -16t-9 -18l-180 -199h23 q100 0 147 -55.5t47 -136.5q0 -90 -56 -141.5t-169 -51.5q-73 0 -124 27.5t-75 75.5q-6 12 -6 18z" />
<glyph unicode="&#xb4;" horiz-adv-x="757" d="M252 1102l203 241q21 24 45 3q11 -9 11.5 -22t-9.5 -24l-213 -229q-16 -19 -33 -2t-4 33z" />
<glyph unicode="&#xb5;" horiz-adv-x="995" d="M123 -389v1304q0 12 9.5 21.5t21.5 9.5t21 -9.5t9 -21.5v-577q0 -69 13 -120.5t46 -97t97 -69.5t158 -24t158 24t96.5 69.5t45.5 97t13 120.5v577q0 12 9.5 21.5t21.5 9.5t21 -9.5t9 -21.5v-577q0 -61 -9 -111t-34 -99t-65.5 -82t-108 -53t-157.5 -20q-119 0 -201 41.5 t-113 106.5v-510q0 -12 -9 -21.5t-21 -9.5t-21.5 9.5t-9.5 21.5z" />
<glyph unicode="&#xb6;" horiz-adv-x="888" d="M43 -23q0 12 7.5 19.5t19.5 7.5q4 0 10 -2q56 -16 110 -16q146 0 216.5 109t70.5 300v340h-112q-132 0 -226 94.5t-94 227.5q0 132 94 226.5t226 94.5h460q11 0 19 -8t8 -18t-8 -18.5t-19 -8.5h-65v-674q0 -374 -140.5 -546.5t-429.5 -172.5q-82 0 -133 23q-14 7 -14 22z M418 23q280 118 280 628v674h-159v-924q0 -131 -29.5 -216.5t-91.5 -161.5z" />
<glyph unicode="&#xb7;" horiz-adv-x="335" d="M106 614q0 64 60 64q61 0 61 -64q0 -59 -61 -59q-60 0 -60 59z" />
<glyph unicode="&#xb8;" horiz-adv-x="645" d="M154 -408q0 9 5 15t13 6q7 0 16 -6q48 -29 97 -29q139 0 139 137q0 68 -35 98.5t-88 30.5q-24 0 -49 -6t-27 -6q-9 0 -15.5 7t-6.5 16l8 145h41l-10 -127q26 8 59 8q80 0 126 -43t46 -123q0 -78 -49 -126t-139 -48q-40 0 -74 11t-51 26q-6 6 -6 14z" />
<glyph unicode="&#xb9;" horiz-adv-x="356" d="M41 1356q0 15 12 22l150 103q12 8 20 8q11 0 18 -7.5t7 -17.5v-575q0 -11 -7 -18t-18 -7q-10 0 -17 7t-7 18v530l-117 -80q-9 -6 -19 -6q-9 0 -15.5 7t-6.5 16z" />
<glyph unicode="&#xba;" horiz-adv-x="681" d="M18 584q0 10 8 18t19 8h592q11 0 19 -8t8 -18t-8 -18.5t-19 -8.5h-592q-11 0 -19 8.5t-8 18.5zM53 1073q0 166 74.5 250t212.5 84t212.5 -84t74.5 -250t-74.5 -250t-212.5 -84t-212.5 84t-74.5 250zM111 1073q0 -280 229 -280t229 280q0 139 -59.5 210t-169.5 71 t-169.5 -71t-59.5 -210z" />
<glyph unicode="&#xbb;" d="M123 16q0 13 6 19l346 399l-346 400q-6 6 -6 18t8.5 20.5t20.5 8.5q11 0 20 -9l360 -423q7 -7 7 -15q0 -7 -7 -14l-360 -424q-8 -8 -20 -8t-20.5 8t-8.5 20zM410 16q0 13 6 19l346 399l-346 400q-6 6 -6 18t8 20.5t20 8.5t21 -9l360 -423q6 -6 6 -15q0 -8 -6 -14 l-360 -424q-8 -8 -21 -8q-12 0 -20 8t-8 20z" />
<glyph unicode="&#xbc;" horiz-adv-x="960" d="M78 1268q0 15 12 22l150 103q12 8 20 8q10 0 17.5 -7.5t7.5 -17.5v-575q0 -11 -7.5 -18t-17.5 -7t-17 7t-7 18v530l-117 -80q-9 -6 -19 -6q-9 0 -15.5 7t-6.5 16zM182 6q0 5 4 17l525 1355q6 17 22 17q9 0 16 -7t7 -16q0 -8 -4 -16l-527 -1358q-5 -14 -20 -14 q-9 0 -16 6.5t-7 15.5zM438 162q0 10 4 14l306 418q9 14 22 14q11 0 18 -7t7 -17v-400h63q9 0 16 -6.5t7 -15.5t-7 -16t-16 -7h-63v-131q0 -10 -7 -17t-18 -7t-18 7t-7 17v131h-284q-9 0 -16 7t-7 16zM504 184h241v332z" />
<glyph unicode="&#xbd;" horiz-adv-x="1044" d="M78 1268q0 15 12 22l150 103q12 8 20 8q10 0 17.5 -7.5t7.5 -17.5v-575q0 -11 -7.5 -18t-17.5 -7t-17 7t-7 18v530l-117 -80q-9 -6 -19 -6q-9 0 -15.5 7t-6.5 16zM182 6q0 5 4 17l525 1355q6 17 22 17q9 0 16 -7t7 -16q0 -8 -4 -16l-527 -1358q-5 -14 -20 -14 q-9 0 -16 6.5t-7 15.5zM563 23q0 48 20.5 86.5t54 64t73.5 47.5t79.5 43t73 44.5t54 58t20.5 77.5q0 60 -39.5 98t-122.5 38q-58 0 -91.5 -25t-55.5 -74q-6 -14 -21 -14q-9 0 -15.5 6.5t-6.5 15.5q0 7 2 13q20 56 70.5 89.5t117.5 33.5q101 0 158 -50t57 -131 q0 -63 -38.5 -112.5t-93.5 -81t-110.5 -60t-94 -65t-38.5 -80.5h349q9 0 15.5 -6.5t6.5 -15.5t-6.5 -16t-15.5 -7h-379q-9 0 -16 7t-7 16z" />
<glyph unicode="&#xbe;" horiz-adv-x="1071" d="M47 891q0 20 21 20q11 0 18 -10q27 -45 65.5 -65.5t100.5 -20.5q89 0 130.5 35.5t41.5 112.5q0 74 -37.5 110.5t-128.5 36.5h-43q-9 0 -15.5 7t-6.5 16q0 10 8 18l178 199h-279q-9 0 -15.5 6.5t-6.5 15.5t6.5 16t15.5 7h326q9 0 16 -7t7 -16t-9 -18l-182 -199h25 q100 0 147 -55.5t47 -136.5q0 -90 -56 -141.5t-169 -51.5q-73 0 -124 27.5t-75 74.5q-6 12 -6 19zM293 6q0 5 4 17l524 1355q6 17 23 17q9 0 15.5 -7t6.5 -16q0 -8 -4 -16l-526 -1358q-5 -14 -21 -14q-9 0 -15.5 6.5t-6.5 15.5zM549 162q0 10 4 14l305 418q9 14 23 14 q11 0 17.5 -7t6.5 -17v-400h64q9 0 15.5 -6.5t6.5 -15.5t-6.5 -16t-15.5 -7h-64v-131q0 -10 -6.5 -17t-17.5 -7t-18 7t-7 17v131h-285q-9 0 -15.5 7t-6.5 16zM614 184h242v332z" />
<glyph unicode="&#xbf;" horiz-adv-x="944" d="M86 -113q0 85 25 153t65 111.5t88.5 79.5t97.5 66t89 60.5t65 72.5t25 94q0 64 -43 117q-9 11 -9 21q0 12 9.5 20t19.5 8q15 0 25 -10q59 -59 59 -156q0 -60 -25 -107.5t-65 -81t-88.5 -64.5t-97.5 -65.5t-89 -75.5t-65 -103t-25 -140q0 -141 88.5 -220t245.5 -79 q318 0 318 312q0 12 9 21t21 9t21.5 -9t9.5 -21q0 -168 -96 -266.5t-283 -98.5q-183 0 -289 95.5t-106 256.5zM483 911q0 47 47 47q48 0 48 -47q0 -49 -48 -49q-47 0 -47 49z" />
<glyph unicode="&#xc0;" horiz-adv-x="1261" d="M66 16q0 9 4 17l530 1339q8 23 31 23q25 0 33 -23l528 -1339q4 -8 4 -17q0 -14 -10 -23t-25 -9q-23 0 -33 24l-167 430h-660l-170 -432q-7 -22 -33 -22q-14 0 -23 9t-9 23zM322 498h618l-309 794zM471 1716q-23 23 2 45t45 -2l203 -241q13 -16 -4 -33t-33 2z" />
<glyph unicode="&#xc1;" horiz-adv-x="1261" d="M66 16q0 9 4 17l530 1339q8 23 31 23q25 0 33 -23l528 -1339q4 -8 4 -17q0 -14 -10 -23t-25 -9q-23 0 -33 24l-167 430h-660l-170 -432q-7 -22 -33 -22q-14 0 -23 9t-9 23zM322 498h618l-309 794zM526 1518l203 241q20 24 45 2t2 -45l-213 -229q-16 -19 -33 -2t-4 33z " />
<glyph unicode="&#xc2;" horiz-adv-x="1261" d="M66 16q0 9 4 17l530 1339q8 23 31 23q25 0 33 -23l528 -1339q4 -8 4 -17q0 -14 -10 -23t-25 -9q-23 0 -33 24l-167 430h-660l-170 -432q-7 -22 -33 -22q-14 0 -23 9t-9 23zM322 498h618l-309 794zM395 1511q0 10 11 21l202 182q10 10 23 10q12 0 22 -10l203 -182 q10 -10 10 -21t-8 -18.5t-18 -7.5q-11 0 -19 8l-190 172l-191 -172q-8 -8 -18 -8q-11 0 -19 8t-8 18z" />
<glyph unicode="&#xc3;" horiz-adv-x="1261" d="M66 16q0 9 4 17l530 1339q8 23 31 23q25 0 33 -23l528 -1339q4 -8 4 -17q0 -14 -10 -23t-25 -9q-23 0 -33 24l-167 430h-660l-170 -432q-7 -22 -33 -22q-14 0 -23 9t-9 23zM322 498h618l-309 794zM338 1520q0 8 4 16q17 40 55 71t97 31q49 0 95.5 -22t90 -44t84.5 -22 q45 0 67 21t37 59q7 17 25 17q11 0 19 -8.5t8 -18.5q0 -6 -5 -16q-18 -41 -55 -74t-96 -33q-49 0 -95.5 22t-90 44t-84.5 22q-72 0 -105 -76q-6 -16 -24 -16q-11 0 -19 8.5t-8 18.5z" />
<glyph unicode="&#xc4;" horiz-adv-x="1261" d="M66 16q0 9 4 17l530 1339q8 23 31 23q25 0 33 -23l528 -1339q4 -8 4 -17q0 -14 -10 -23t-25 -9q-23 0 -33 24l-167 430h-660l-170 -432q-7 -22 -33 -22q-14 0 -23 9t-9 23zM322 498h618l-309 794zM422 1565q0 47 45 47t45 -47t-45 -47t-45 47zM750 1565q0 47 45 47 t45 -47t-45 -47t-45 47z" />
<glyph unicode="&#xc5;" horiz-adv-x="1261" d="M66 16q0 9 4 17l530 1339q8 23 31 23q25 0 33 -23l528 -1339q4 -8 4 -17q0 -14 -10 -23t-25 -9q-23 0 -33 24l-167 430h-660l-170 -432q-7 -22 -33 -22q-14 0 -23 9t-9 23zM322 498h618l-309 794zM418 1640q0 96 53.5 148.5t159.5 52.5t159.5 -52.5t53.5 -148.5t-53 -148 t-160 -52t-160 52t-53 148zM471 1640q0 -80 38 -117.5t122 -37.5t122 37.5t38 117.5t-38 118t-122 38t-122 -38t-38 -118z" />
<glyph unicode="&#xc6;" horiz-adv-x="1748" d="M29 16q0 12 8 23l848 1317q16 22 39 22h688q12 0 20 -8t8 -20t-8 -20.5t-20 -8.5h-662v-598h516q12 0 20.5 -8.5t8.5 -20.5t-8.5 -20t-20.5 -8h-516v-609h686q12 0 20.5 -8t8.5 -20t-8.5 -20.5t-20.5 -8.5h-718q-14 0 -23.5 10t-9.5 23v405h-516l-279 -438 q-11 -16 -29 -16q-13 0 -22.5 9t-9.5 23zM403 498h482v753z" />
<glyph unicode="&#xc7;" horiz-adv-x="1273" d="M90 688q0 357 164.5 538t466.5 181q144 0 264.5 -57.5t190.5 -155.5q8 -12 8 -23q0 -12 -8.5 -20t-20.5 -8q-15 0 -25 12q-64 87 -172 141t-237 54q-275 0 -420 -163.5t-145 -498.5q0 -178 37 -305.5t111 -205t176.5 -113t240.5 -35.5q122 0 230.5 48t178.5 142 q10 12 25 12q12 0 20.5 -8t8.5 -20q0 -10 -6 -19q-65 -99 -189 -156t-268 -57h-27l-8 -98q26 8 59 8q80 0 126.5 -43t46.5 -123q0 -77 -49.5 -125.5t-139.5 -48.5q-40 0 -74 11t-51 26q-6 6 -6 14q0 9 5 15t13 6t17 -6q48 -29 96 -29q139 0 139 137q0 68 -35 98.5t-88 30.5 q-24 0 -48.5 -6t-26.5 -6q-9 0 -16 7t-7 16l6 120q-563 37 -563 713z" />
<glyph unicode="&#xc8;" horiz-adv-x="1048" d="M184 33v1313q0 13 9.5 22.5t23.5 9.5h694q12 0 20.5 -8t8.5 -20t-8.5 -20.5t-20.5 -8.5h-661v-598h516q12 0 20.5 -8.5t8.5 -20.5t-8.5 -20t-20.5 -8h-516v-609h686q12 0 20.5 -8t8.5 -20t-8.5 -20.5t-20.5 -8.5h-719q-13 0 -23 10t-10 23zM440 1716q-23 23 2 45t45 -2 l203 -241q13 -16 -4 -33t-33 2z" />
<glyph unicode="&#xc9;" horiz-adv-x="1048" d="M184 33v1313q0 13 9.5 22.5t23.5 9.5h694q12 0 20.5 -8t8.5 -20t-8.5 -20.5t-20.5 -8.5h-661v-598h516q12 0 20.5 -8.5t8.5 -20.5t-8.5 -20t-20.5 -8h-516v-609h686q12 0 20.5 -8t8.5 -20t-8.5 -20.5t-20.5 -8.5h-719q-13 0 -23 10t-10 23zM475 1518l203 241q20 24 45 2 t2 -45l-213 -229q-16 -19 -33 -2t-4 33z" />
<glyph unicode="&#xca;" horiz-adv-x="1048" d="M184 33v1313q0 13 9.5 22.5t23.5 9.5h694q12 0 20.5 -8t8.5 -20t-8.5 -20.5t-20.5 -8.5h-661v-598h516q12 0 20.5 -8.5t8.5 -20.5t-8.5 -20t-20.5 -8h-516v-609h686q12 0 20.5 -8t8.5 -20t-8.5 -20.5t-20.5 -8.5h-719q-13 0 -23 10t-10 23zM340 1511q0 11 10 21l203 182 q10 10 22 10q13 0 23 -10l203 -182q10 -10 10 -21q0 -10 -8 -18t-19 -8q-10 0 -18 8l-191 172l-190 -172q-8 -8 -18 -8q-11 0 -19 8t-8 18z" />
<glyph unicode="&#xcb;" horiz-adv-x="1048" d="M184 33v1313q0 13 9.5 22.5t23.5 9.5h694q12 0 20.5 -8t8.5 -20t-8.5 -20.5t-20.5 -8.5h-661v-598h516q12 0 20.5 -8.5t8.5 -20.5t-8.5 -20t-20.5 -8h-516v-609h686q12 0 20.5 -8t8.5 -20t-8.5 -20.5t-20.5 -8.5h-719q-13 0 -23 10t-10 23zM369 1565q0 47 45 47t45 -47 t-45 -47t-45 47zM696 1565q0 47 45 47t45 -47t-45 -47t-45 47z" />
<glyph unicode="&#xcc;" horiz-adv-x="434" d="M54 1739.5q1 12.5 12 21.5q25 22 45 -2l202 -241q13 -16 -4 -33t-33 2l-213 229q-10 11 -9 23.5zM184 16v1346q0 14 10 23.5t23 9.5t23 -9.5t10 -23.5v-1346q0 -13 -9.5 -22.5t-23.5 -9.5t-23.5 9.5t-9.5 22.5z" />
<glyph unicode="&#xcd;" horiz-adv-x="434" d="M133 1518l203 241q20 24 45 2t2 -45l-213 -229q-16 -19 -33 -2t-4 33zM184 16v1346q0 14 10 23.5t23 9.5t23 -9.5t10 -23.5v-1346q0 -13 -9.5 -22.5t-23.5 -9.5t-23.5 9.5t-9.5 22.5z" />
<glyph unicode="&#xce;" horiz-adv-x="434" d="M-20 1511q0 11 10 21l203 182q10 10 22 10q13 0 23 -10l202 -182q11 -11 11 -21t-8 -18t-19 -8q-10 0 -18 8l-191 172l-190 -172q-8 -8 -19 -8q-10 0 -18 7.5t-8 18.5zM184 16v1346q0 14 10 23.5t23 9.5t23 -9.5t10 -23.5v-1346q0 -13 -9.5 -22.5t-23.5 -9.5t-23.5 9.5 t-9.5 22.5z" />
<glyph unicode="&#xcf;" horiz-adv-x="434" d="M6 1565q0 47 45 47t45 -47t-45 -47t-45 47zM184 16v1346q0 14 10 23.5t23 9.5t23 -9.5t10 -23.5v-1346q0 -13 -9.5 -22.5t-23.5 -9.5t-23.5 9.5t-9.5 22.5zM334 1565q0 47 45 47t45 -47t-45 -47t-45 47z" />
<glyph unicode="&#xd0;" horiz-adv-x="1243" d="M49 715q0 10 8 18t19 8h108v605q0 13 9.5 22.5t23.5 9.5h305q151 0 264.5 -37t197 -117.5t126.5 -214.5t43 -321q0 -186 -43 -320t-126.5 -214t-197 -117t-264.5 -37h-305q-13 0 -23 10t-10 23v655h-108q-10 0 -18.5 8t-8.5 19zM250 57h272q136 0 236 31.5t176 103 t114.5 195.5t38.5 301q0 175 -38.5 299.5t-114 196.5t-176.5 104.5t-236 32.5h-272v-580h471q11 0 19 -8t8 -18q0 -11 -8 -19t-19 -8h-471v-631z" />
<glyph unicode="&#xd1;" horiz-adv-x="1271" d="M164 14v1350q0 12 9.5 21.5t21.5 9.5q15 0 24 -13l828 -1269v1251q0 12 9 21.5t21 9.5t21.5 -9.5t9.5 -21.5v-1348q0 -13 -9.5 -22.5t-23.5 -9.5q-19 0 -31 18l-819 1262v-1250q0 -12 -9 -21t-21 -9t-21.5 9t-9.5 21zM367 1520q0 8 4 16q17 41 54.5 71.5t96.5 30.5 q49 0 96 -22t90.5 -44t84.5 -22q45 0 67 21t37 59q7 17 25 17q10 0 18 -8t8 -19q0 -8 -4 -16q-18 -41 -55 -74t-96 -33q-49 0 -96 22t-90.5 44t-84.5 22q-42 0 -65 -20t-39 -56q-6 -16 -25 -16q-10 0 -18 8t-8 19z" />
<glyph unicode="&#xd2;" horiz-adv-x="1441" d="M90 688q0 357 164.5 538t466.5 181t466.5 -181t164.5 -538q0 -356 -164.5 -536.5t-466.5 -180.5t-466.5 180.5t-164.5 536.5zM156 688q0 -334 145 -496.5t420 -162.5t420 162.5t145 496.5q0 335 -145 498.5t-420 163.5t-420 -163.5t-145 -498.5zM537 1716q-23 23 2 45 t45 -2l202 -241q13 -16 -4 -33q-16 -16 -32 2z" />
<glyph unicode="&#xd3;" horiz-adv-x="1441" d="M90 688q0 357 164.5 538t466.5 181t466.5 -181t164.5 -538q0 -356 -164.5 -536.5t-466.5 -180.5t-466.5 180.5t-164.5 536.5zM156 688q0 -334 145 -496.5t420 -162.5t420 162.5t145 496.5q0 335 -145 498.5t-420 163.5t-420 -163.5t-145 -498.5zM641 1518l203 241 q20 24 45 2t2 -45l-213 -229q-16 -19 -33 -2t-4 33z" />
<glyph unicode="&#xd4;" horiz-adv-x="1441" d="M90 688q0 357 164.5 538t466.5 181t466.5 -181t164.5 -538q0 -356 -164.5 -536.5t-466.5 -180.5t-466.5 180.5t-164.5 536.5zM156 688q0 -334 145 -496.5t420 -162.5t420 162.5t145 496.5q0 335 -145 498.5t-420 163.5t-420 -163.5t-145 -498.5zM485 1511q0 10 11 21 l202 182q10 10 23 10q12 0 22 -10l203 -182q10 -10 10 -21t-8 -18.5t-18 -7.5q-11 0 -19 8l-190 172l-191 -172q-8 -8 -18 -8q-11 0 -19 8t-8 18z" />
<glyph unicode="&#xd5;" horiz-adv-x="1441" d="M90 688q0 357 164.5 538t466.5 181t466.5 -181t164.5 -538q0 -356 -164.5 -536.5t-466.5 -180.5t-466.5 180.5t-164.5 536.5zM156 688q0 -334 145 -496.5t420 -162.5t420 162.5t145 496.5q0 335 -145 498.5t-420 163.5t-420 -163.5t-145 -498.5zM430 1520q0 8 4 16 q17 40 55 71t97 31q49 0 95.5 -22t90 -44t84.5 -22q45 0 67.5 21t37.5 59q7 17 24 17q11 0 19 -8.5t8 -18.5q0 -8 -4 -16q-18 -41 -55.5 -74t-96.5 -33q-49 0 -95.5 22t-90 44t-84.5 22q-72 0 -105 -76q-6 -16 -24 -16q-11 0 -19 8.5t-8 18.5z" />
<glyph unicode="&#xd6;" horiz-adv-x="1441" d="M90 688q0 357 164.5 538t466.5 181t466.5 -181t164.5 -538q0 -356 -164.5 -536.5t-466.5 -180.5t-466.5 180.5t-164.5 536.5zM156 688q0 -334 145 -496.5t420 -162.5t420 162.5t145 496.5q0 335 -145 498.5t-420 163.5t-420 -163.5t-145 -498.5zM512 1565q0 47 45 47 t45 -47t-45 -47t-45 47zM840 1565q0 47 45 47t45 -47t-45 -47t-45 47z" />
<glyph unicode="&#xd7;" horiz-adv-x="696" d="M0 129q0 15 8 23l299 294l-299 295q-8 8 -8 23q0 12 9 20.5t22 8.5q11 0 20 -9l297 -297l297 297q9 9 21 9q13 0 21.5 -8.5t8.5 -20.5q0 -15 -8 -23l-299 -295l299 -294q8 -8 8 -23q0 -12 -8.5 -20.5t-21.5 -8.5q-12 0 -21 9l-297 297l-297 -297q-9 -9 -20 -9 q-13 0 -22 8.5t-9 20.5z" />
<glyph unicode="&#xd8;" horiz-adv-x="1441" d="M90 688q0 357 164.5 538t466.5 181q267 0 426 -141l119 151q8 10 20 10q11 0 19 -8t8 -18q0 -9 -4 -15l-125 -157q168 -183 168 -541q0 -356 -164.5 -536.5t-466.5 -180.5q-270 0 -428 140l-119 -150q-10 -10 -20 -10q-11 0 -19 8t-8 18q0 11 6 17l123 156 q-166 186 -166 538zM156 688q0 -324 139 -489l811 1020q-140 131 -385 131q-275 0 -420 -163.5t-145 -498.5zM334 160q137 -131 387 -131q275 0 420 162.5t145 496.5q0 325 -141 492z" />
<glyph unicode="&#xd9;" horiz-adv-x="1284" d="M184 406v956q0 14 10 23.5t23 9.5t23 -9.5t10 -23.5v-956q0 -62 9.5 -113t37 -101.5t71 -85t116.5 -56t169 -21.5t169 21.5t116.5 56t70.5 85t36.5 101.5t9.5 113v956q0 14 9.5 23.5t22.5 9.5t23 -9.5t10 -23.5v-956q0 -70 -12 -129t-44 -117t-83 -98.5t-135 -65.5 t-193 -25t-193 25t-135.5 65.5t-84 98.5t-44.5 117t-12 129zM537 1716q-23 23 2 45t45 -2l202 -241q13 -16 -4 -33q-16 -16 -32 2z" />
<glyph unicode="&#xda;" horiz-adv-x="1284" d="M184 406v956q0 14 10 23.5t23 9.5t23 -9.5t10 -23.5v-956q0 -62 9.5 -113t37 -101.5t71 -85t116.5 -56t169 -21.5t169 21.5t116.5 56t70.5 85t36.5 101.5t9.5 113v956q0 14 9.5 23.5t22.5 9.5t23 -9.5t10 -23.5v-956q0 -70 -12 -129t-44 -117t-83 -98.5t-135 -65.5 t-193 -25t-193 25t-135.5 65.5t-84 98.5t-44.5 117t-12 129zM567 1518l203 241q20 24 45 2t2 -45l-213 -229q-16 -19 -33 -2t-4 33z" />
<glyph unicode="&#xdb;" horiz-adv-x="1284" d="M184 406v956q0 14 10 23.5t23 9.5t23 -9.5t10 -23.5v-956q0 -62 9.5 -113t37 -101.5t71 -85t116.5 -56t169 -21.5t169 21.5t116.5 56t70.5 85t36.5 101.5t9.5 113v956q0 14 9.5 23.5t22.5 9.5t23 -9.5t10 -23.5v-956q0 -70 -12 -129t-44 -117t-83 -98.5t-135 -65.5 t-193 -25t-193 25t-135.5 65.5t-84 98.5t-44.5 117t-12 129zM426 1511q0 11 10 21l203 182q10 10 23 10q12 0 22 -10l203 -182q10 -10 10 -21q0 -10 -8 -18t-19 -8q-10 0 -18 8l-190 172l-191 -172q-8 -8 -18 -8q-11 0 -19 8t-8 18z" />
<glyph unicode="&#xdc;" horiz-adv-x="1284" d="M184 406v956q0 14 10 23.5t23 9.5t23 -9.5t10 -23.5v-956q0 -62 9.5 -113t37 -101.5t71 -85t116.5 -56t169 -21.5t169 21.5t116.5 56t70.5 85t36.5 101.5t9.5 113v956q0 14 9.5 23.5t22.5 9.5t23 -9.5t10 -23.5v-956q0 -70 -12 -129t-44 -117t-83 -98.5t-135 -65.5 t-193 -25t-193 25t-135.5 65.5t-84 98.5t-44.5 117t-12 129zM444 1565q0 47 45 47q46 0 46 -47t-46 -47q-45 0 -45 47zM772 1565q0 47 45 47t45 -47t-45 -47t-45 47z" />
<glyph unicode="&#xdd;" horiz-adv-x="1030" d="M35 1360q0 15 9.5 25t23.5 10q20 0 30 -17l416 -665l414 665q11 17 28 17q15 0 25 -10t10 -25q0 -12 -6 -21l-438 -688v-635q0 -13 -9.5 -22.5t-23.5 -9.5t-23.5 9.5t-9.5 22.5v635l-440 688q-6 9 -6 21zM438 1518l203 241q20 24 45 2t2 -45l-213 -229q-16 -19 -33 -2 t-4 33z" />
<glyph unicode="&#xde;" horiz-adv-x="1110" d="M184 16v1346q0 14 10 23.5t23 9.5t23 -9.5t10 -23.5v-260h399q165 0 269 -99t104 -286q0 -186 -103.5 -285.5t-269.5 -99.5h-399v-316q0 -13 -9.5 -22.5t-23.5 -9.5t-23.5 9.5t-9.5 22.5zM250 389h377q155 0 242 84.5t87 243.5q0 161 -87.5 244t-241.5 83h-377v-655z" />
<glyph unicode="&#xdf;" horiz-adv-x="1040" d="M143 12v1055q0 71 14 127.5t46.5 105.5t92.5 76t144 27q116 0 194.5 -67t78.5 -173q0 -54 -18 -97.5t-47.5 -72t-64.5 -52.5t-70 -45.5t-64.5 -43.5t-47.5 -53.5t-18 -69.5q0 -55 32.5 -96t84 -66.5t114 -47t125 -45t114 -53.5t84 -79t32.5 -115q0 -125 -94 -189.5 t-244 -64.5q-120 0 -213.5 42.5t-134.5 99.5q-9 12 -9 20q0 11 8.5 19t18.5 8t18 -8q56 -63 129 -95t183 -32q58 0 106.5 11t87.5 33.5t60.5 62.5t21.5 93t-32.5 93.5t-84 65.5t-114 47t-124.5 46t-113.5 54.5t-84 80t-32.5 115.5q0 46 18 82.5t47 61t64 46.5t70.5 44.5 t64.5 48t47 64t18 87.5q0 83 -57 135t-154 52q-67 0 -114 -20.5t-73 -60t-37 -88.5t-11 -114v-1055q0 -12 -9.5 -21t-21.5 -9t-21.5 9t-9.5 21z" />
<glyph unicode="&#xe0;" d="M74 258q0 134 101.5 209.5t277.5 75.5h315v94q0 129 -79.5 198.5t-221.5 69.5q-78 0 -136 -23t-87 -52t-58 -74q-9 -15 -24 -15q-12 0 -20.5 8.5t-8.5 20.5q0 9 6 18q45 74 127 122t201 48q182 0 270 -89t88 -248v-607q0 -12 -8 -20t-20 -8t-20.5 8t-8.5 20v121 q-49 -79 -139.5 -119.5t-198.5 -40.5q-171 0 -263.5 74t-92.5 209zM137 258q0 -109 73.5 -169t219.5 -60q92 0 167 31t123 97.5t48 159.5v175h-315q-144 0 -230 -59.5t-86 -174.5zM340.5 1324q0.5 13 11.5 22q24 21 45 -3l203 -241q13 -16 -4 -33t-33 2l-213 229 q-10 11 -9.5 24z" />
<glyph unicode="&#xe1;" d="M74 258q0 134 101.5 209.5t277.5 75.5h315v94q0 129 -79.5 198.5t-221.5 69.5q-78 0 -136 -23t-87 -52t-58 -74q-9 -15 -24 -15q-12 0 -20.5 8.5t-8.5 20.5q0 9 6 18q45 74 127 122t201 48q182 0 270 -89t88 -248v-607q0 -12 -8 -20t-20 -8t-20.5 8t-8.5 20v121 q-49 -79 -139.5 -119.5t-198.5 -40.5q-171 0 -263.5 74t-92.5 209zM137 258q0 -109 73.5 -169t219.5 -60q92 0 167 31t123 97.5t48 159.5v175h-315q-144 0 -230 -59.5t-86 -174.5zM373 1102l202 241q21 25 46 3q11 -9 11.5 -22t-9.5 -24l-213 -229q-16 -19 -33 -2t-4 33z " />
<glyph unicode="&#xe2;" d="M74 258q0 134 101.5 209.5t277.5 75.5h315v94q0 129 -79.5 198.5t-221.5 69.5q-78 0 -136 -23t-87 -52t-58 -74q-9 -15 -24 -15q-12 0 -20.5 8.5t-8.5 20.5q0 9 6 18q45 74 127 122t201 48q182 0 270 -89t88 -248v-607q0 -12 -8 -20t-20 -8t-20.5 8t-8.5 20v121 q-49 -79 -139.5 -119.5t-198.5 -40.5q-171 0 -263.5 74t-92.5 209zM137 258q0 -109 73.5 -169t219.5 -60q92 0 167 31t123 97.5t48 159.5v175h-315q-144 0 -230 -59.5t-86 -174.5zM252 1118q0 11 10 21l203 182q10 10 22 10q13 0 23 -10l203 -182q10 -10 10 -21 q0 -10 -8 -18t-19 -8q-10 0 -18 8l-191 172l-190 -172q-8 -8 -18 -8q-11 0 -19 8t-8 18z" />
<glyph unicode="&#xe3;" d="M74 258q0 134 101.5 209.5t277.5 75.5h315v94q0 129 -79.5 198.5t-221.5 69.5q-78 0 -136 -23t-87 -52t-58 -74q-9 -15 -24 -15q-12 0 -20.5 8.5t-8.5 20.5q0 9 6 18q45 74 127 122t201 48q182 0 270 -89t88 -248v-607q0 -12 -8 -20t-20 -8t-20.5 8t-8.5 20v121 q-49 -79 -139.5 -119.5t-198.5 -40.5q-171 0 -263.5 74t-92.5 209zM137 258q0 -109 73.5 -169t219.5 -60q92 0 167 31t123 97.5t48 159.5v175h-315q-144 0 -230 -59.5t-86 -174.5zM180 1118q0 9 4 17q17 40 55 71t97 31q49 0 95.5 -22t90 -44t84.5 -22q45 0 67.5 21t37.5 59 q6 16 24 16q11 0 19 -8t8 -18q0 -9 -4 -17q-18 -41 -55.5 -73.5t-96.5 -32.5q-49 0 -95.5 22t-90 44t-84.5 22q-72 0 -105 -76q-6 -16 -24 -16q-11 0 -19 8t-8 18z" />
<glyph unicode="&#xe4;" d="M74 258q0 134 101.5 209.5t277.5 75.5h315v94q0 129 -79.5 198.5t-221.5 69.5q-78 0 -136 -23t-87 -52t-58 -74q-9 -15 -24 -15q-12 0 -20.5 8.5t-8.5 20.5q0 9 6 18q45 74 127 122t201 48q182 0 270 -89t88 -248v-607q0 -12 -8 -20t-20 -8t-20.5 8t-8.5 20v121 q-49 -79 -139.5 -119.5t-198.5 -40.5q-171 0 -263.5 74t-92.5 209zM137 258q0 -109 73.5 -169t219.5 -60q92 0 167 31t123 97.5t48 159.5v175h-315q-144 0 -230 -59.5t-86 -174.5zM274 1161q0 47 45 47q46 0 46 -47t-46 -47q-45 0 -45 47zM602 1161q0 47 45 47t45 -47 t-45 -47t-45 47z" />
<glyph unicode="&#xe5;" d="M74 258q0 134 101.5 209.5t277.5 75.5h315v94q0 129 -79.5 198.5t-221.5 69.5q-78 0 -136 -23t-87 -52t-58 -74q-9 -15 -24 -15q-12 0 -20.5 8.5t-8.5 20.5q0 9 6 18q45 74 127 122t201 48q182 0 270 -89t88 -248v-607q0 -12 -8 -20t-20 -8t-20.5 8t-8.5 20v121 q-49 -79 -139.5 -119.5t-198.5 -40.5q-171 0 -263.5 74t-92.5 209zM137 258q0 -109 73.5 -169t219.5 -60q92 0 167 31t123 97.5t48 159.5v175h-315q-144 0 -230 -59.5t-86 -174.5zM258 1229q0 96 53.5 148.5t159.5 52.5t159.5 -52.5t53.5 -148.5t-53.5 -148.5t-159.5 -52.5 t-159.5 52.5t-53.5 148.5zM311 1229q0 -80 38 -118t122 -38t122 38t38 118t-38 117.5t-122 37.5t-122 -37.5t-38 -117.5z" />
<glyph unicode="&#xe6;" horiz-adv-x="1638" d="M70 248q0 134 104.5 206t296.5 72h297v113q0 129 -79 197.5t-222 68.5q-78 0 -136 -23t-87 -52t-58 -74q-9 -15 -24 -15q-12 0 -20.5 8.5t-8.5 20.5q0 9 6 18q45 74 127 122t201 48q293 0 344 -233q38 112 135.5 172.5t235.5 60.5q97 0 170 -26.5t113 -65t64 -92.5 t31 -98t7 -92q0 -51 -4 -76q-6 -33 -45 -33h-693q0 -222 95 -335t284 -113q72 0 131 17t90 36t68 49q9 6 16 6q11 0 19 -8t8 -18q0 -11 -12 -23q-120 -113 -320 -113q-152 0 -254 64t-141 190q-40 -127 -141 -189.5t-238 -62.5q-173 0 -266.5 69.5t-93.5 203.5zM133 248 q0 -107 74.5 -163t222.5 -56q91 0 166.5 33.5t123.5 101.5t48 160v151h-315q-145 0 -232.5 -56.5t-87.5 -170.5zM825 526h680q2 38 2 58q0 321 -325 321q-169 0 -263 -98t-94 -281z" />
<glyph unicode="&#xe7;" horiz-adv-x="901" d="M80 467q0 247 109.5 369t310.5 122q202 0 303 -137q6 -9 6 -18q0 -11 -8.5 -19t-18.5 -8q-13 0 -22 12q-21 24 -34.5 37t-45.5 35.5t-77 33.5t-103 11q-176 0 -265.5 -107t-89.5 -331q0 -226 89.5 -333t265.5 -107q65 0 123 18.5t85 35.5t64 46q9 6 16 6q10 0 18.5 -8.5 t8.5 -18.5q0 -12 -12 -22q-24 -20 -43.5 -32.5t-59 -34t-91 -33t-109.5 -11.5q-25 0 -35 2l-8 -102q26 8 59 8q80 0 126 -43t46 -123q0 -78 -49 -126t-139 -48q-40 0 -74 11t-51 26q-6 6 -6 14q0 9 5 15t13 6q7 0 16 -6q48 -29 97 -29q139 0 139 137q0 68 -35 98.5t-88 30.5 q-24 0 -49 -6t-27 -6q-9 0 -15.5 7t-6.5 16l6 125q-166 21 -255 142.5t-89 344.5z" />
<glyph unicode="&#xe8;" horiz-adv-x="954" d="M82 467q0 236 110 363.5t308 127.5q97 0 170 -28.5t113 -69t64 -97.5t31 -102t7 -94q0 -50 -4 -75q-6 -33 -45 -33h-691q0 -218 97 -325t280 -107q72 0 131 17t90 36t68 49q9 6 16 6q11 0 19 -8t8 -18q0 -11 -12 -23q-120 -113 -320 -113q-211 0 -325.5 121t-114.5 373z M145 510h678q2 41 2 57q0 67 -14.5 123t-49 106.5t-101 79.5t-160.5 29q-170 0 -259.5 -104t-95.5 -291zM346.5 1324q0.5 13 11.5 22q24 21 45 -3l203 -241q13 -16 -4 -33t-33 2l-213 229q-10 11 -9.5 24z" />
<glyph unicode="&#xe9;" horiz-adv-x="954" d="M82 467q0 236 110 363.5t308 127.5q97 0 170 -28.5t113 -69t64 -97.5t31 -102t7 -94q0 -50 -4 -75q-6 -33 -45 -33h-691q0 -218 97 -325t280 -107q72 0 131 17t90 36t68 49q9 6 16 6q11 0 19 -8t8 -18q0 -11 -12 -23q-120 -113 -320 -113q-211 0 -325.5 121t-114.5 373z M145 510h678q2 41 2 57q0 67 -14.5 123t-49 106.5t-101 79.5t-160.5 29q-170 0 -259.5 -104t-95.5 -291zM408 1102l202 241q21 24 45 3q11 -9 11.5 -22t-9.5 -24l-213 -229q-16 -18 -32 -2q-17 17 -4 33z" />
<glyph unicode="&#xea;" horiz-adv-x="954" d="M82 467q0 236 110 363.5t308 127.5q97 0 170 -28.5t113 -69t64 -97.5t31 -102t7 -94q0 -50 -4 -75q-6 -33 -45 -33h-691q0 -218 97 -325t280 -107q72 0 131 17t90 36t68 49q9 6 16 6q11 0 19 -8t8 -18q0 -11 -12 -23q-120 -113 -320 -113q-211 0 -325.5 121t-114.5 373z M145 510h678q2 41 2 57q0 67 -14.5 123t-49 106.5t-101 79.5t-160.5 29q-170 0 -259.5 -104t-95.5 -291zM272 1118q0 10 11 21l202 182q10 10 23 10q12 0 22 -10l203 -182q10 -10 10 -21q0 -10 -7.5 -18t-18.5 -8t-19 8l-190 172l-191 -172q-8 -8 -18 -8q-11 0 -19 8t-8 18z " />
<glyph unicode="&#xeb;" horiz-adv-x="954" d="M82 467q0 236 110 363.5t308 127.5q97 0 170 -28.5t113 -69t64 -97.5t31 -102t7 -94q0 -50 -4 -75q-6 -33 -45 -33h-691q0 -218 97 -325t280 -107q72 0 131 17t90 36t68 49q9 6 16 6q11 0 19 -8t8 -18q0 -11 -12 -23q-120 -113 -320 -113q-211 0 -325.5 121t-114.5 373z M145 510h678q2 41 2 57q0 67 -14.5 123t-49 106.5t-101 79.5t-160.5 29q-170 0 -259.5 -104t-95.5 -291zM305 1161q0 47 45 47t45 -47t-45 -47t-45 47zM633 1161q0 47 45 47t45 -47t-45 -47t-45 47z" />
<glyph unicode="&#xec;" horiz-adv-x="358" d="M2.5 1324q0.5 13 11.5 22q24 21 45 -3l203 -241q13 -16 -4 -33t-33 2l-213 229q-10 11 -9.5 24zM154 14v901q0 12 9 21.5t21 9.5t21.5 -9.5t9.5 -21.5v-901q0 -12 -9.5 -21t-21.5 -9t-21 9t-9 21z" />
<glyph unicode="&#xed;" horiz-adv-x="358" d="M115 1102l202 241q21 24 45 3q11 -9 12 -22t-9 -24l-213 -229q-16 -19 -33 -2t-4 33zM154 14v901q0 12 9 21.5t21 9.5t21.5 -9.5t9.5 -21.5v-901q0 -12 -9.5 -21t-21.5 -9t-21 9t-9 21z" />
<glyph unicode="&#xee;" horiz-adv-x="358" d="M-55 1118q0 11 10 21l203 182q10 10 22 10q13 0 23 -10l203 -182q10 -10 10 -21q0 -10 -8 -18t-19 -8q-10 0 -18 8l-191 172l-190 -172q-8 -8 -19 -8t-18.5 8t-7.5 18zM154 14v901q0 12 9 21.5t21 9.5t21.5 -9.5t9.5 -21.5v-901q0 -12 -9.5 -21t-21.5 -9t-21 9t-9 21z " />
<glyph unicode="&#xef;" horiz-adv-x="358" d="M-25 1161q0 47 45 47q46 0 46 -47t-46 -47q-45 0 -45 47zM154 14v901q0 12 9 21.5t21 9.5t21.5 -9.5t9.5 -21.5v-901q0 -12 -9.5 -21t-21.5 -9t-21 9t-9 21zM303 1161q0 47 45 47t45 -47t-45 -47t-45 47z" />
<glyph unicode="&#xf0;" horiz-adv-x="999" d="M82 467q0 247 108.5 369t309.5 122q230 0 340 -167q-65 264 -211 419l-160 -102l-14 -4q-11 0 -18 7t-7 17q0 15 12 23l152 96q-88 95 -223 166q-15 9 -15 23q0 9 7 15.5t16 6.5q8 0 16 -4q137 -71 240 -178l127 82q6 4 14 4q9 0 17 -8t8 -17q0 -13 -10 -20l-121 -78 q127 -149 187.5 -326.5t60.5 -445.5q0 -247 -108.5 -370.5t-309.5 -123.5t-309.5 123.5t-108.5 370.5zM143 467q0 -226 90 -333t267 -107t266.5 107t89.5 333q0 438 -356 438q-357 0 -357 -438z" />
<glyph unicode="&#xf1;" horiz-adv-x="1015" d="M152 14v901q0 12 9 21.5t21 9.5t21.5 -9.5t9.5 -21.5v-153q13 34 37 66t62.5 62.5t96 49t126.5 18.5q366 0 366 -362v-582q0 -12 -9.5 -21t-21.5 -9t-21 9t-9 21v582q0 53 -8 96t-29 84t-54.5 68.5t-88.5 44t-128 16.5q-80 0 -143 -28.5t-100.5 -76.5t-56.5 -105.5 t-19 -119.5v-561q0 -12 -9.5 -21t-21.5 -9t-21 9t-9 21zM217 1118q0 9 4 17q17 40 55 71t97 31q49 0 95.5 -22t90 -44t84.5 -22q45 0 67.5 21t37.5 59q6 16 24 16q11 0 19 -8t8 -18q0 -9 -4 -17q-18 -41 -55.5 -73.5t-96.5 -32.5q-49 0 -95.5 22t-90 44t-84.5 22 q-72 0 -105 -76q-6 -16 -24 -16q-11 0 -19 8t-8 18z" />
<glyph unicode="&#xf2;" horiz-adv-x="999" d="M80 467q0 247 109.5 369t310.5 122t310.5 -122t109.5 -369t-109.5 -370.5t-310.5 -123.5t-310.5 123.5t-109.5 370.5zM145 467q0 -440 355 -440q354 0 354 440q0 438 -354 438q-355 0 -355 -438zM367.5 1324q0.5 13 11.5 22q24 21 45 -3l203 -241q13 -16 -4 -33t-33 2 l-213 229q-10 11 -9.5 24z" />
<glyph unicode="&#xf3;" horiz-adv-x="999" d="M80 467q0 247 109.5 369t310.5 122t310.5 -122t109.5 -369t-109.5 -370.5t-310.5 -123.5t-310.5 123.5t-109.5 370.5zM145 467q0 -440 355 -440q354 0 354 440q0 438 -354 438q-355 0 -355 -438zM420 1102l203 241q21 24 45 3q11 -9 11.5 -22t-9.5 -24l-213 -229 q-16 -19 -33 -2t-4 33z" />
<glyph unicode="&#xf4;" horiz-adv-x="999" d="M80 467q0 247 109.5 369t310.5 122t310.5 -122t109.5 -369t-109.5 -370.5t-310.5 -123.5t-310.5 123.5t-109.5 370.5zM145 467q0 -440 355 -440q354 0 354 440q0 438 -354 438q-355 0 -355 -438zM268 1118q0 10 11 21l202 182q10 10 23 10q12 0 22 -10l203 -182 q10 -10 10 -21q0 -10 -7.5 -18t-18.5 -8t-19 8l-190 172l-191 -172q-8 -8 -18 -8q-11 0 -19 8t-8 18z" />
<glyph unicode="&#xf5;" horiz-adv-x="999" d="M80 467q0 247 109.5 369t310.5 122t310.5 -122t109.5 -369t-109.5 -370.5t-310.5 -123.5t-310.5 123.5t-109.5 370.5zM145 467q0 -440 355 -440q354 0 354 440q0 438 -354 438q-355 0 -355 -438zM209 1118q0 9 4 17q17 40 55 71t97 31q49 0 95.5 -22t90 -44t84.5 -22 q45 0 67 21t37 59q6 16 25 16q11 0 19 -8t8 -18q0 -7 -5 -17q-18 -41 -55 -73.5t-96 -32.5q-49 0 -95.5 22t-90 44t-84.5 22q-72 0 -105 -76q-6 -16 -24 -16q-11 0 -19 8t-8 18z" />
<glyph unicode="&#xf6;" horiz-adv-x="999" d="M80 467q0 247 109.5 369t310.5 122t310.5 -122t109.5 -369t-109.5 -370.5t-310.5 -123.5t-310.5 123.5t-109.5 370.5zM145 467q0 -440 355 -440q354 0 354 440q0 438 -354 438q-355 0 -355 -438zM291 1161q0 47 45 47t45 -47t-45 -47t-45 47zM618 1161q0 47 46 47 q45 0 45 -47t-45 -47q-46 0 -46 47z" />
<glyph unicode="&#xf7;" horiz-adv-x="929" d="M0 446q0 10 8 18.5t19 8.5h876q11 0 19 -8.5t8 -18.5t-8 -18t-19 -8h-876q-11 0 -19 8t-8 18zM418 197q0 19 14 33t33 14q20 0 33.5 -14t13.5 -33q0 -21 -13.5 -35.5t-33.5 -14.5q-19 0 -33 15t-14 35zM418 696q0 20 14 33.5t33 13.5q20 0 33.5 -13.5t13.5 -33.5 q0 -19 -13.5 -33t-33.5 -14q-19 0 -33 14t-14 33z" />
<glyph unicode="&#xf8;" horiz-adv-x="1019" d="M55 14q0 13 8 21l103 108q-74 118 -74 324q0 247 108.5 369t309.5 122q205 0 311 -124l97 100q8 8 18 8q12 0 19.5 -7.5t7.5 -19.5q0 -9 -9 -18l-102 -106q76 -124 76 -324q0 -247 -108.5 -370.5t-309.5 -123.5q-207 0 -313 127l-95 -100q-10 -10 -22 -10q-11 0 -18 7 t-7 17zM156 467q0 -179 51 -281l573 605q-86 114 -270 114q-176 0 -265 -107t-89 -331zM236 141q87 -114 274 -114q176 0 265 106.5t89 333.5q0 181 -53 278z" />
<glyph unicode="&#xf9;" horiz-adv-x="995" d="M123 338v577q0 12 9.5 21.5t21.5 9.5t21 -9.5t9 -21.5v-577q0 -69 13 -120.5t46 -97t97 -69.5t158 -24t158 24t96.5 69.5t45.5 97t13 120.5v577q0 12 9.5 21.5t21.5 9.5t21 -9.5t9 -21.5v-577q0 -61 -9 -111t-34 -99t-65.5 -82t-108 -53t-157.5 -20t-157.5 20t-108.5 53 t-66 82t-34 99t-9 111zM340.5 1324q0.5 13 11.5 22q24 21 45 -3l203 -241q13 -16 -4 -33t-33 2l-213 229q-10 11 -9.5 24z" />
<glyph unicode="&#xfa;" horiz-adv-x="995" d="M123 338v577q0 12 9.5 21.5t21.5 9.5t21 -9.5t9 -21.5v-577q0 -69 13 -120.5t46 -97t97 -69.5t158 -24t158 24t96.5 69.5t45.5 97t13 120.5v577q0 12 9.5 21.5t21.5 9.5t21 -9.5t9 -21.5v-577q0 -61 -9 -111t-34 -99t-65.5 -82t-108 -53t-157.5 -20t-157.5 20t-108.5 53 t-66 82t-34 99t-9 111zM393 1102l203 241q21 24 45 3q11 -9 11.5 -22t-9.5 -24l-213 -229q-16 -19 -33 -2t-4 33z" />
<glyph unicode="&#xfb;" horiz-adv-x="995" d="M123 338v577q0 12 9.5 21.5t21.5 9.5t21 -9.5t9 -21.5v-577q0 -69 13 -120.5t46 -97t97 -69.5t158 -24t158 24t96.5 69.5t45.5 97t13 120.5v577q0 12 9.5 21.5t21.5 9.5t21 -9.5t9 -21.5v-577q0 -61 -9 -111t-34 -99t-65.5 -82t-108 -53t-157.5 -20t-157.5 20t-108.5 53 t-66 82t-34 99t-9 111zM270 1118q0 10 11 21l202 182q10 10 23 10q12 0 22 -10l203 -182q10 -10 10 -21q0 -10 -7.5 -18t-18.5 -8t-19 8l-190 172l-191 -172q-8 -8 -18 -8q-11 0 -19 8t-8 18z" />
<glyph unicode="&#xfc;" horiz-adv-x="995" d="M123 338v577q0 12 9.5 21.5t21.5 9.5t21 -9.5t9 -21.5v-577q0 -69 13 -120.5t46 -97t97 -69.5t158 -24t158 24t96.5 69.5t45.5 97t13 120.5v577q0 12 9.5 21.5t21.5 9.5t21 -9.5t9 -21.5v-577q0 -61 -9 -111t-34 -99t-65.5 -82t-108 -53t-157.5 -20t-157.5 20t-108.5 53 t-66 82t-34 99t-9 111zM289 1161q0 47 45 47t45 -47t-45 -47t-45 47zM616 1161q0 47 46 47q45 0 45 -47t-45 -47q-46 0 -46 47z" />
<glyph unicode="&#xfd;" horiz-adv-x="876" d="M4 -385q0 11 8 19t19 8q48 0 86.5 8t68 19.5t56 37.5t45 49.5t41.5 69t38.5 81.5t41.5 101l-367 891q-4 8 -4 16q0 12 9.5 21.5t21.5 9.5q21 0 28 -20l342 -848l342 848q7 20 29 20q12 0 21.5 -9.5t9.5 -21.5q0 -8 -4 -16l-433 -1042q-63 -150 -146 -209.5t-226 -59.5 q-11 0 -19 8t-8 19zM358 1102l203 241q21 24 45 3q11 -9 11.5 -22t-9.5 -24l-213 -229q-16 -19 -33 -2t-4 33z" />
<glyph unicode="&#xfe;" horiz-adv-x="1042" d="M143 -381v1808q0 12 9.5 21.5t21.5 9.5t21.5 -9.5t9.5 -21.5v-671q82 202 338 202q201 0 309.5 -122t108.5 -369t-108.5 -370.5t-309.5 -123.5q-55 0 -103 11t-81.5 28t-61 38t-44 42.5t-28 38.5t-15.5 28l-5 11v-551q0 -12 -9.5 -21.5t-21.5 -9.5t-21.5 9.5t-9.5 21.5z M201 467q0 -225 92.5 -332.5t249.5 -107.5q177 0 266.5 107t89.5 333q0 438 -362 438q-160 0 -248 -108t-88 -330z" />
<glyph unicode="&#xff;" horiz-adv-x="876" d="M4 -385q0 11 8 19t19 8q48 0 86.5 8t68 19.5t56 37.5t45 49.5t41.5 69t38.5 81.5t41.5 101l-367 891q-4 8 -4 16q0 12 9.5 21.5t21.5 9.5q21 0 28 -20l342 -848l342 848q7 20 29 20q12 0 21.5 -9.5t9.5 -21.5q0 -8 -4 -16l-433 -1042q-63 -150 -146 -209.5t-226 -59.5 q-11 0 -19 8t-8 19zM229 1161q0 47 45 47t45 -47t-45 -47t-45 47zM557 1161q0 47 45 47t45 -47t-45 -47t-45 47z" />
<glyph unicode="&#x152;" horiz-adv-x="1929" d="M90 688q0 357 164.5 538t466.5 181q195 0 344 -82v21q0 13 9.5 22.5t23.5 9.5h694q12 0 20.5 -8t8.5 -20t-8.5 -20.5t-20.5 -8.5h-662v-598h517q12 0 20 -8.5t8 -20.5t-8 -20t-20 -8h-517v-609h687q12 0 20 -8t8 -20t-8 -20.5t-20 -8.5h-719q-14 0 -23.5 10t-9.5 23v20 q-149 -82 -344 -82q-302 0 -466.5 180.5t-164.5 536.5zM156 688q0 -334 145 -496.5t420 -162.5q210 0 344 94v1132q-136 95 -344 95q-275 0 -420 -163.5t-145 -498.5z" />
<glyph unicode="&#x153;" horiz-adv-x="1726" d="M82 467q0 247 108.5 369t309.5 122q305 0 389 -272q41 132 139 202t244 70q97 0 170 -28.5t113 -69t64 -97.5t31 -102t7 -94q0 -50 -4 -75q-6 -33 -45 -33h-690q0 -432 376 -432q72 0 131 17t90 36t68 49q9 6 16 6q11 0 19 -8t8 -18q0 -11 -12 -23q-120 -113 -320 -113 q-322 0 -407 271q-81 -271 -387 -271q-201 0 -309.5 123.5t-108.5 370.5zM143 467q0 -226 90 -333t267 -107t266.5 107t89.5 333q0 438 -356 438q-357 0 -357 -438zM918 510h679q2 37 2 57q0 67 -15 123t-49.5 106.5t-101.5 79.5t-161 29q-171 0 -261 -103.5t-93 -291.5z " />
<glyph unicode="&#x178;" horiz-adv-x="1028" d="M35 1360q0 15 9.5 25t23.5 10q20 0 30 -17l416 -665l414 665q11 17 28 17q15 0 25 -10t10 -25q0 -12 -6 -21l-438 -688v-635q0 -13 -9.5 -22.5t-23.5 -9.5t-23.5 9.5t-9.5 22.5v635l-440 688q-6 9 -6 21zM303 1565q0 47 45 47t45 -47t-45 -47t-45 47zM631 1565 q0 47 45 47t45 -47t-45 -47t-45 47z" />
<glyph unicode="&#x2c6;" horiz-adv-x="684" d="M106 1118q0 10 11 21l202 182q10 10 23 10t23 -10l202 -182q11 -11 11 -21t-8 -18t-19 -8t-19 8l-190 172l-190 -172q-8 -8 -19 -8t-19 8t-8 18z" />
<glyph unicode="&#x2dc;" horiz-adv-x="774" d="M96 1118q0 9 4 17q17 40 55 71t97 31q49 0 95.5 -22t90 -44t84.5 -22q45 0 67.5 21t37.5 59q6 16 24 16q11 0 19 -8t8 -18q0 -9 -4 -17q-18 -41 -55.5 -73.5t-96.5 -32.5q-49 0 -95.5 22t-90 44t-84.5 22q-72 0 -105 -76q-6 -16 -24 -16q-11 0 -19 8t-8 18z" />
<glyph unicode="&#x2000;" horiz-adv-x="920" />
<glyph unicode="&#x2001;" horiz-adv-x="1841" />
<glyph unicode="&#x2002;" horiz-adv-x="920" />
<glyph unicode="&#x2003;" horiz-adv-x="1841" />
<glyph unicode="&#x2004;" horiz-adv-x="613" />
<glyph unicode="&#x2005;" horiz-adv-x="460" />
<glyph unicode="&#x2006;" horiz-adv-x="306" />
<glyph unicode="&#x2007;" horiz-adv-x="306" />
<glyph unicode="&#x2008;" horiz-adv-x="230" />
<glyph unicode="&#x2009;" horiz-adv-x="368" />
<glyph unicode="&#x200a;" horiz-adv-x="102" />
<glyph unicode="&#x2010;" horiz-adv-x="577" d="M74 516q0 11 8 19t18 8h375q11 0 19 -8.5t8 -18.5t-8 -18.5t-19 -8.5h-375q-10 0 -18 8t-8 19z" />
<glyph unicode="&#x2011;" horiz-adv-x="577" d="M74 516q0 11 8 19t18 8h375q11 0 19 -8.5t8 -18.5t-8 -18.5t-19 -8.5h-375q-10 0 -18 8t-8 19z" />
<glyph unicode="&#x2012;" horiz-adv-x="577" d="M74 516q0 11 8 19t18 8h375q11 0 19 -8.5t8 -18.5t-8 -18.5t-19 -8.5h-375q-10 0 -18 8t-8 19z" />
<glyph unicode="&#x2013;" horiz-adv-x="1196" d="M211 578q0 10 8 18t19 8h720q11 0 19 -8t8 -18t-8.5 -18.5t-18.5 -8.5h-720q-10 0 -18.5 8.5t-8.5 18.5z" />
<glyph unicode="&#x2014;" horiz-adv-x="1880" d="M211 578q0 10 8 18t19 8h1404q11 0 19 -8t8 -18t-8.5 -18.5t-18.5 -8.5h-1404q-10 0 -18.5 8.5t-8.5 18.5z" />
<glyph unicode="&#x2018;" horiz-adv-x="280" d="M92 1161q0 63 20 124t48 99q8 11 20 11q8 0 13.5 -5.5t5.5 -13.5q0 -6 -4 -14q-41 -70 -41 -123q0 -30 17 -66.5t17 -52.5q0 -20 -11.5 -32.5t-33.5 -12.5q-27 0 -39 19t-12 67z" />
<glyph unicode="&#x2019;" horiz-adv-x="280" d="M82 1094q0 6 4 14q41 70 41 123q0 30 -17.5 66.5t-17.5 52.5q0 20 11.5 32.5t33.5 12.5q27 0 39 -19t12 -67q0 -63 -19.5 -125t-47.5 -99q-8 -10 -21 -10q-7 0 -12.5 5.5t-5.5 13.5z" />
<glyph unicode="&#x201a;" horiz-adv-x="288" d="M86 -221q0 6 4 14q41 70 41 123q0 30 -17.5 66.5t-17.5 52.5q0 20 11.5 32.5t33.5 12.5q27 0 39.5 -19t12.5 -67q0 -63 -20 -124t-48 -99q-8 -11 -21 -11q-7 0 -12.5 5.5t-5.5 13.5z" />
<glyph unicode="&#x201c;" horiz-adv-x="479" d="M92 1161q0 63 20 124t48 99q8 11 20 11q8 0 13.5 -5.5t5.5 -13.5q0 -6 -4 -14q-41 -70 -41 -123q0 -30 17 -66.5t17 -52.5q0 -20 -11.5 -32.5t-33.5 -12.5q-27 0 -39 19t-12 67zM291 1161q0 63 19.5 124t47.5 99q8 11 21 11q7 0 12.5 -5.5t5.5 -13.5q0 -6 -4 -14 q-41 -70 -41 -123q0 -30 17.5 -66.5t17.5 -52.5q0 -20 -11.5 -32.5t-33.5 -12.5q-27 0 -39 19t-12 67z" />
<glyph unicode="&#x201d;" horiz-adv-x="479" d="M82 1094q0 6 4 14q41 70 41 123q0 30 -17.5 66.5t-17.5 52.5q0 20 11.5 32.5t33.5 12.5q27 0 39 -19t12 -67q0 -63 -19.5 -125t-47.5 -99q-8 -10 -21 -10q-7 0 -12.5 5.5t-5.5 13.5zM281 1094q0 6 4 14q41 70 41 123q0 30 -17.5 66.5t-17.5 52.5q0 20 11.5 32.5 t33.5 12.5q27 0 39 -19t12 -67q0 -63 -20 -124.5t-48 -99.5q-8 -10 -20 -10q-7 0 -12.5 5.5t-5.5 13.5z" />
<glyph unicode="&#x201e;" horiz-adv-x="487" d="M86 -221q0 6 4 14q41 70 41 123q0 30 -17.5 66.5t-17.5 52.5q0 20 11.5 32.5t33.5 12.5q27 0 39.5 -19t12.5 -67q0 -63 -20 -124t-48 -99q-8 -11 -21 -11q-7 0 -12.5 5.5t-5.5 13.5zM285 -221q0 6 4 14q41 70 41 123q0 30 -17.5 66.5t-17.5 52.5q0 20 11.5 32.5 t33.5 12.5q27 0 39 -19t12 -67q0 -63 -19.5 -124t-47.5 -99q-8 -11 -21 -11q-7 0 -12.5 5.5t-5.5 13.5z" />
<glyph unicode="&#x2022;" horiz-adv-x="856" d="M162 571q0 279 266 279t266 -279q0 -133 -68.5 -199.5t-197.5 -66.5t-197.5 66.5t-68.5 199.5z" />
<glyph unicode="&#x202f;" horiz-adv-x="368" />
<glyph unicode="&#x2039;" horiz-adv-x="663" d="M123 434q0 9 6 15l360 423q9 9 21 9t20.5 -8.5t8.5 -20.5q0 -11 -7 -18l-346 -400l346 -399q7 -7 7 -19t-8.5 -20t-20.5 -8q-13 0 -21 8l-360 424q-6 6 -6 14z" />
<glyph unicode="&#x203a;" horiz-adv-x="661" d="M123 16q0 13 6 19l346 399l-346 400q-6 6 -6 18t8.5 20.5t20.5 8.5q11 0 20 -9l360 -423q7 -7 7 -15q0 -7 -7 -14l-360 -424q-8 -8 -20 -8t-20.5 8t-8.5 20z" />
<glyph unicode="&#x205f;" horiz-adv-x="460" />
<glyph unicode="&#x20ac;" horiz-adv-x="1273" d="M-8 561q0 11 8 19t18 8h76q-4 62 -4 100q0 57 2 84h-74q-10 0 -18 8t-8 19t8 18.5t18 7.5h78q30 289 192 435.5t433 146.5q144 0 264.5 -57.5t190.5 -155.5q8 -12 8 -23q0 -12 -8.5 -20t-20.5 -8q-15 0 -25 12q-64 87 -172 141t-237 54q-245 0 -387.5 -130t-171.5 -395 h428q10 0 18 -7.5t8 -18.5t-8 -19t-18 -8h-432q-2 -27 -2 -84q0 -69 2 -100h432q10 0 18 -8t8 -19t-8 -18.5t-18 -7.5h-426q30 -267 169.5 -386.5t387.5 -119.5q122 0 230.5 48t178.5 142q10 12 25 12q12 0 20.5 -8t8.5 -20q0 -10 -6 -19q-65 -99 -189 -156t-268 -57 q-562 0 -623 564h-80q-10 0 -18 7.5t-8 18.5z" />
<glyph unicode="&#x2122;" horiz-adv-x="817" d="M43 1315q0 20 20 20h269q20 0 20 -20q0 -21 -20 -21h-113v-315q0 -9 -6.5 -16t-15.5 -7t-16 7t-7 16v315h-111q-20 0 -20 21zM414 977v342q0 9 6.5 15.5t15.5 6.5q15 0 23 -16l112 -229l113 229q8 16 23 16q9 0 15.5 -6.5t6.5 -15.5v-342q0 -21 -20 -21q-9 0 -15 6t-6 15 v270l-94 -190q-8 -17 -23 -17q-13 0 -22 17l-94 190v-270q0 -9 -6 -15t-15 -6q-20 0 -20 21z" />
<glyph unicode="&#x25fc;" horiz-adv-x="942" d="M0 0v942h942v-942h-942z" />
</font>
</defs>
</svg>
